VERSION	0.00.00	1.03.00
FES_MODE	0
BPM_DEF	136.000	136.000	136.000	136.000
MET_DEF	4	4
RESOLUTION	384
CLK_DEF	384
COMPATIBLE_CODE	MA2

BPM	0	0	136.000
MET	0	0	4	4
CLK	0	0
CLK	0	96
CLK	0	192
CLK	0	288

TAP	2	0	3
TAP	2	0	4
TAP	2	48	3
TAP	2	144	3
TAP	2	240	3
TAP	2	336	3
TAP	3	48	3
TAP	3	144	3
TAP	3	240	3
TAP	3	336	3
TAP	4	0	3
TAP	4	0	4
HLD	4	96	5	96
TAP	4	192	4
TAP	4	264	3
TAP	4	264	4
TAP	4	336	2
TAP	4	336	3
XTP	5	0	1
HLD	5	96	2	96
TAP	5	192	3
TAP	5	264	3
TAP	5	264	4
TAP	5	336	4
TAP	5	336	5
XTP	6	0	6
HLD	6	96	5	96
TAP	6	192	4
TAP	6	264	3
TAP	6	264	4
TAP	6	336	2
TAP	6	336	3
TAP	7	0	2
TAP	7	0	3
TAP	7	48	1
TAP	7	48	4
HLD	7	96	1	192
HLD	7	96	4	192
TAP	8	0	3
TAP	8	0	4
HLD	8	96	1	96
TAP	8	192	3
TAP	8	264	2
TAP	8	264	4
TAP	8	336	3
TAP	8	336	5
XTP	9	0	6
HLD	9	96	6	96
TAP	9	192	4
TAP	9	264	3
TAP	9	264	5
TAP	9	336	2
TAP	9	336	4
XTP	10	0	1
HLD	10	96	1	96
TAP	10	192	3
TAP	10	264	2
TAP	10	264	4
TAP	10	336	3
TAP	10	336	5
STR	11	96	2
SI_	11	96	2	96	96	4
STR	11	96	5
SI_	11	96	5	96	96	1
HLD	12	0	5	48
HLD	12	0	6	48
TTP	12	96	0	C	0	M1
HLD	12	192	1	48
HLD	12	192	2	48
TTP	12	288	0	C	0	M1
HLD	13	0	5	48
HLD	13	0	6	48
TTP	13	96	0	C	0	M1
HLD	13	192	1	48
HLD	13	192	2	48
TTP	13	288	0	C	0	M1
HLD	14	0	5	48
HLD	14	0	6	48
TTP	14	96	0	C	0	M1
TAP	14	192	1
TAP	14	192	2
STR	14	288	2
SI_	14	288	2	96	96	4
STR	14	288	5
SI_	14	288	5	96	96	1
XTP	15	240	0
XTP	15	288	0
HLD	16	0	5	48
HLD	16	0	6	48
TTP	16	96	0	C	0	M1
HLD	16	192	1	48
HLD	16	192	2	48
TTP	16	288	0	C	0	M1
HLD	17	0	5	48
HLD	17	0	6	48
TTP	17	96	0	C	0	M1
HLD	17	192	1	48
HLD	17	192	2	48
TTP	17	288	0	C	0	M1
HLD	18	0	5	48
HLD	18	0	6	48
TTP	18	96	0	C	0	M1
HLD	18	192	1	48
HLD	18	192	2	48
STR	18	288	3
SUR	18	288	3	96	144	4
TAP	18	288	4
BRK	19	192	7
BRK	19	288	7
XHO	20	0	0	96
STR	20	192	1
SI_	20	192	1	96	48	4
TAP	20	192	6
HLD	21	0	5	96
TAP	21	96	4
TAP	21	144	3
TAP	21	144	4
TAP	21	192	2
TAP	21	192	3
XTP	21	240	1
XTP	21	240	4
TTP	22	0	0	C	1	M1
TTP	22	0	2	B	0	M1
TTP	22	0	5	B	0	M1
TTP	22	96	0	B	0	M1
TTP	22	96	0	C	1	M1
TTP	22	96	7	B	0	M1
XTP	22	288	0
XTP	22	288	7
TAP	23	96	2
TAP	23	96	3
TAP	23	144	3
TAP	23	144	4
TAP	23	192	4
TAP	23	192	5
XTP	23	240	3
XTP	23	240	6
XTP	23	336	3
XTP	23	336	4
STR	24	0	2
SXL	24	0	2	96	192	5
TAP	24	48	2
TAP	25	0	7
TAP	25	48	7
XTP	25	96	5
XTP	25	96	6
TAP	25	192	0
TAP	25	240	0
XTP	25	288	1
XTP	25	288	2
TAP	26	0	2
HLD	26	0	3	480
XTP	26	192	7
XTP	26	240	7
XTP	27	0	1
XTP	27	96	1
BRK	27	240	6
BRK	27	288	7
BRK	27	336	1
TAP	28	0	2
TAP	28	48	4
TAP	28	96	3
TAP	28	96	5
XTP	28	168	7
XTP	28	216	7
TAP	28	264	5
TAP	28	288	4
TAP	28	336	3
TAP	28	336	6
TAP	29	0	5
TAP	29	48	3
TAP	29	96	2
TAP	29	96	3
XTP	29	168	0
XTP	29	216	0
TAP	29	264	2
TAP	29	288	3
TAP	29	336	1
TAP	29	336	4
TAP	30	0	2
TAP	30	48	4
TAP	30	96	3
TAP	30	96	5
XTP	30	168	7
XTP	30	216	7
TAP	30	264	3
TAP	30	288	4
TAP	30	336	1
TAP	30	336	5
STR	31	0	2
SI_	31	0	2	96	96	5
SCR	31	0	2	96	96	5
TAP	31	48	2
XTP	31	240	3
XTP	31	240	4
XTP	31	288	3
XTP	31	288	4
BRK	32	0	0
TAP	32	96	2
TAP	32	96	3
XTP	32	144	1
XTP	32	144	4
XTP	32	240	7
TAP	32	288	6
TAP	32	336	4
TAP	32	336	5
XTP	33	0	1
XTP	33	0	6
TTP	33	96	0	C	1	M1
TTP	33	96	3	B	0	M1
TTP	33	96	4	B	0	M1
TTP	33	144	0	C	1	M1
TTP	33	144	1	B	0	M1
TTP	33	144	6	B	0	M1
XST	33	288	0
SSL	33	288	0	96	288	4
XST	33	288	7
SSR	33	288	7	96	288	3
TAP	35	0	4
TAP	35	0	5
XTP	35	96	0
HLD	35	144	0	96
TAP	35	240	7
TAP	35	288	1
TAP	35	288	6
HLD	36	0	5	48
HLD	36	0	6	48
TTP	36	96	0	C	0	M1
TTP	36	96	4	E	0	M1
HLD	36	192	1	48
HLD	36	192	2	48
TTP	36	288	0	C	0	M1
TTP	36	288	4	E	0	M1
HLD	37	0	5	48
HLD	37	0	6	48
TTP	37	96	0	C	0	M1
TTP	37	96	4	E	0	M1
HLD	37	192	1	48
HLD	37	192	2	48
TTP	37	288	0	C	0	M1
TTP	37	288	4	E	0	M1
HLD	38	0	5	48
HLD	38	0	6	48
TTP	38	96	0	C	0	M1
TTP	38	96	4	E	0	M1
HLD	38	192	1	48
HLD	38	192	2	48
TTP	38	288	0	C	0	M1
TTP	38	288	4	E	0	M1
XHO	39	96	3	48
XHO	39	96	4	48
HLD	40	0	5	48
HLD	40	0	6	48
TTP	40	96	0	C	0	M1
TTP	40	96	4	E	0	M1
HLD	40	192	1	48
HLD	40	192	2	48
TTP	40	288	0	C	0	M1
TTP	40	288	4	E	0	M1
HLD	41	0	5	48
HLD	41	0	6	48
TTP	41	96	0	C	0	M1
TTP	41	96	4	E	0	M1
HLD	41	192	1	48
HLD	41	192	2	48
TTP	41	288	0	C	0	M1
TTP	41	288	4	E	0	M1
HLD	42	0	5	48
HLD	42	0	6	48
TTP	42	96	0	C	0	M1
TTP	42	96	4	E	0	M1
HLD	42	192	1	48
HLD	42	192	2	48
TAP	42	288	0
TAP	42	288	7
TAP	42	336	0
TAP	42	336	7
TAP	43	0	2
TAP	43	0	5
XTP	43	72	0
XTP	43	120	0
XTP	43	168	1
XTP	43	168	3
TAP	43	288	4
TAP	43	288	5
TAP	43	336	4
TAP	43	336	5
BRK	44	0	1
BRK	44	0	6
XTP	44	240	0
XTP	44	288	0
STR	45	0	7
SV_	45	0	7	96	48	4
STR	45	96	0
SCR	45	96	0	96	48	3
STR	45	192	7
SI_	45	192	7	96	48	4
STR	45	288	0
SI_	45	288	0	96	48	4
STR	46	0	7
SI_	46	0	7	96	24	5
STR	46	96	0
SUR	46	96	0	96	48	4
STR	46	192	7
SCL	46	192	7	96	24	5
TAP	46	288	0
TAP	46	336	0
STR	47	0	5
SI_	47	0	5	96	48	0
STR	47	96	4
SI_	47	96	4	96	48	1
STR	47	192	5
SV_	47	192	5	96	48	7
TAP	47	288	3
STR	48	0	0
SI_	48	0	0	96	48	3
STR	48	96	7
SI_	48	96	7	96	48	4
TAP	48	192	0
TAP	48	240	0
BRK	48	288	1
BRK	48	288	6
BRK	48	336	1
BRK	48	336	6
STR	49	0	0
SV_	49	0	0	96	48	3
STR	49	96	7
SCL	49	96	7	96	48	4
STR	49	192	0
SI_	49	192	0	96	48	3
STR	49	288	7
SI_	49	288	7	96	48	3
STR	50	0	0
SI_	50	0	0	96	48	2
STR	50	96	7
SUL	50	96	7	96	48	3
STR	50	192	0
SCR	50	192	0	96	48	2
TAP	50	288	7
TAP	51	0	5
TAP	51	48	5
TAP	51	96	4
TAP	51	144	4
TAP	51	192	3
TAP	51	240	3
TAP	51	288	2
TAP	51	288	5
XTP	52	0	0
XTP	52	0	7
XTP	52	48	0
XTP	52	48	7
XTP	52	96	1
XTP	52	96	6
XTP	52	144	1
XTP	52	144	6
BRK	52	192	2
BRK	52	192	5
TAP	52	240	1
TAP	52	288	0
TAP	52	336	0
STR	53	0	7
SV_	53	0	7	96	48	4
STR	53	96	0
SCR	53	96	0	96	48	3
STR	53	192	7
SI_	53	192	7	96	48	4
STR	53	288	0
SI_	53	288	0	96	48	4
STR	54	0	7
SI_	54	0	7	96	24	5
STR	54	96	0
SUR	54	96	0	96	48	4
STR	54	192	7
SCL	54	192	7	96	48	5
TAP	54	288	0
TAP	54	336	0
STR	55	0	5
SI_	55	0	5	96	48	0
STR	55	96	4
SI_	55	96	4	96	48	1
STR	55	192	5
SV_	55	192	5	96	48	7
TAP	55	288	3
STR	56	0	0
SI_	56	0	0	96	48	3
STR	56	96	7
SI_	56	96	7	96	48	4
TAP	56	192	0
TAP	56	240	1
BRK	56	288	2
BRK	56	288	5
BRK	56	336	2
BRK	56	336	5
TAP	57	0	1
TAP	57	48	1
XTP	57	96	0
XTP	57	96	2
TAP	57	192	6
TAP	57	240	6
BRK	57	288	5
BRK	57	288	7
XST	58	0	0
SI_	58	0	0	96	48	4
XTP	58	0	7
XTP	58	48	0
XTP	58	48	7
TAP	58	192	6
TAP	58	264	0
TAP	58	264	7
TAP	58	336	0
TAP	58	336	7
STR	59	0	1
SUR	59	0	1	96	192	4
XTP	59	0	6
XTP	60	0	0
XTP	60	0	7
TAP	60	48	6
TAP	60	96	5
TAP	60	144	4
TAP	60	192	3
TAP	60	240	2
STR	60	288	1
SI_	60	288	1	96	48	5
TAP	60	336	1
BRK	61	96	7
TAP	61	144	6
HLD	61	192	5	72
TAP	61	264	4
TAP	61	288	5
TAP	61	336	3
TAP	61	336	6
HLD	62	0	2	72
TAP	62	72	3
TAP	62	96	2
TAP	62	144	1
TAP	62	144	4
TAP	62	192	0
TAP	62	240	0
TAP	62	288	7
TAP	62	336	6
HLD	63	0	5	72
TAP	63	72	4
TAP	63	96	5
TAP	63	144	3
TAP	63	144	6
HLD	63	192	2	72
TAP	63	264	3
TAP	63	288	2
TAP	63	336	1
TAP	63	336	4
TAP	64	0	0
TAP	64	48	7
HLD	64	96	0	72
STR	64	96	7
SCL	64	96	7	96	96	4
TAP	64	288	0
TAP	64	336	1
HLD	65	0	2	72
TAP	65	72	3
TAP	65	96	2
TAP	65	144	1
TAP	65	144	4
HLD	65	192	5	72
TAP	65	264	4
TAP	65	288	5
TAP	65	336	3
TAP	65	336	6
HLD	66	0	2	72
TAP	66	72	3
STR	66	96	2
SCR	66	96	2	96	96	5
XTP	66	288	7
HLD	67	0	1	48
HLD	67	0	7	48
HLD	67	96	0	48
HLD	67	96	6	48
XHO	67	192	5	72
XHO	67	264	4	72
XST	67	336	3
SCL	67	336	3	96	144	5
TAP	68	288	1
TAP	68	288	6
TAP	69	0	2
TAP	69	48	0
TAP	69	48	2
TAP	69	96	1
TAP	69	144	0
TAP	69	144	6
TAP	69	192	5
TAP	69	240	5
TAP	69	240	7
TAP	69	288	6
TAP	69	336	1
TAP	69	336	7
TAP	70	0	2
TAP	70	48	0
TAP	70	48	2
TAP	70	96	1
TAP	70	144	0
TAP	70	144	6
TAP	70	192	5
TAP	70	240	5
TAP	70	240	7
TAP	70	288	6
TAP	70	336	1
TAP	70	336	7
TAP	71	0	2
TAP	71	48	0
TAP	71	48	2
TAP	71	96	1
TAP	71	144	0
TAP	71	144	6
TAP	71	192	5
TAP	71	240	5
TAP	71	240	7
STR	71	288	6
SXL	71	288	6	96	192	1
STR	72	288	0
SI_	72	288	0	96	48	3
HLD	72	288	5	72
STR	73	96	0
SCR	73	96	0	96	48	3
HLD	73	96	6	72
HLD	73	288	6	72
STR	73	288	7
SCR	73	288	7	96	144	4
HLD	74	288	2	72
STR	74	288	7
SI_	74	288	7	96	48	4
HLD	75	96	1	72
STR	75	96	7
SCL	75	96	7	96	48	4
STR	75	288	0
SCL	75	288	0	96	144	3
HLD	75	288	1	72
XTP	76	168	0
STR	76	288	2
SCR	76	288	2	96	96	5
STR	77	96	6
SCR	77	96	6	96	96	1
STR	77	288	2
SCR	77	288	2	96	96	5
XTP	78	192	0
XTP	78	192	7
XTP	78	264	0
XTP	78	264	7
XTP	78	336	1
XTP	78	336	6
XST	79	0	1
SCL	79	0	1	96	192	3
XTP	79	0	6
BRK	80	0	1
BRK	80	0	6
TTP	80	192	1	B	0	M1
TTP	80	192	2	B	0	M1
TTP	80	288	5	B	0	M1
TTP	80	288	6	B	0	M1
TTP	81	48	0	B	0	M1
TTP	81	48	0	C	1	M1
TTP	81	48	7	B	0	M1

T_REC_TAP	220
T_REC_BRK	23
T_REC_XTP	69
T_REC_HLD	75
T_REC_XHO	5
T_REC_STR	53
T_REC_BST	0
T_REC_XST	5
T_REC_TTP	51
T_REC_THO	0
T_REC_SLD	59
T_REC_ALL	560
T_NUM_TAP	398
T_NUM_BRK	23
T_NUM_HLD	80
T_NUM_SLD	59
T_NUM_ALL	560
T_JUDGE_TAP	421
T_JUDGE_HLD	120
T_JUDGE_SLD	59
T_JUDGE_ALL	600
TTM_EACHPAIRS	131
TTM_SCR_TAP	199000
TTM_SCR_BRK	59800
TTM_SCR_HLD	80000
TTM_SCR_SLD	88500
TTM_SCR_ALL	427300
TTM_SCR_S	412250
TTM_SCR_SS	425000
TTM_RAT_ACV	10054

