VERSION	0.00.00	1.03.00
FES_MODE	0
BPM_DEF	136.000	136.000	136.000	136.000
MET_DEF	4	4
RESOLUTION	384
CLK_DEF	384
COMPATIBLE_CODE	MA2

BPM	0	0	136.000
MET	0	0	4	4

XHO	2	0	3	576
XHO	2	0	4	384
HLD	4	0	5	192
TAP	4	192	4
TAP	4	288	4
HLD	5	0	3	192
TAP	5	192	4
TAP	5	288	4
HLD	6	0	5	192
TAP	6	192	4
TAP	6	288	3
HLD	7	0	3	48
HLD	7	0	4	96
XTP	7	288	2
XTP	7	288	3
HLD	8	0	2	192
TAP	8	192	3
TAP	8	288	3
HLD	9	0	4	192
TAP	9	192	3
TAP	9	288	3
TAP	10	0	2
TAP	10	96	2
TAP	10	192	1
TAP	10	288	1
TAP	11	0	0
TAP	11	0	7
TAP	11	96	1
TAP	11	96	6
XTP	11	192	2
XTP	11	192	5
TTP	12	0	3	B	0	L1
TTP	12	192	4	B	0	L1
TTP	13	0	2	B	0	L1
TTP	13	192	5	B	0	L1
TTP	14	0	1	B	0	L1
TTP	14	192	6	B	0	L1
THO	15	0	0	192	C	0	L1
TTP	16	0	1	B	0	L1
TTP	16	192	0	C	0	L1
TTP	17	0	5	B	0	L1
TTP	17	192	6	B	0	L1
TTP	18	0	0	C	0	L1
TTP	18	192	2	B	0	L1
TTP	19	0	0	C	1	L1
TAP	20	0	2
TAP	20	96	2
TAP	20	192	3
TAP	20	192	4
TAP	20	288	5
TAP	21	0	5
TAP	21	96	4
TAP	21	96	5
XTP	21	192	3
XTP	21	192	6
TAP	22	0	5
TAP	22	96	5
TAP	22	192	3
TAP	22	192	4
XTP	22	288	2
TAP	23	0	2
TAP	23	96	2
TAP	23	96	3
XTP	23	192	1
XTP	23	192	4
TAP	24	0	2
HLD	24	96	2	288
TAP	25	0	3
TAP	25	96	4
TAP	25	192	5
TAP	25	288	4
TAP	26	0	3
TAP	26	96	2
TAP	26	192	3
TAP	26	288	4
HLD	27	0	3	96
HLD	27	0	4	96
BRK	27	192	2
BRK	27	192	5
TAP	28	0	1
TAP	28	96	0
XTP	28	192	7
XTP	28	288	7
TAP	29	0	6
TAP	29	96	7
XTP	29	192	0
XTP	29	288	0
TAP	30	0	1
TAP	30	96	2
TAP	30	192	3
TAP	30	288	4
TAP	31	0	5
TAP	31	96	6
TAP	31	96	7
XTP	31	192	0
XTP	31	192	5
TAP	32	0	6
TAP	32	96	7
XTP	32	192	0
XTP	32	288	0
TAP	33	0	1
TAP	33	96	0
XTP	33	192	7
XTP	33	288	7
TAP	34	0	6
TAP	34	96	5
TAP	34	192	4
TAP	34	288	3
TAP	35	0	2
XTP	35	96	0
XTP	35	96	1
XTP	35	192	2
XTP	35	192	7
STR	36	0	1
SCR	36	0	1	96	144	4
STR	37	0	5
SCR	37	0	5	96	144	0
STR	38	0	1
SI_	38	0	1	96	144	4
TAP	39	0	5
HLD	39	96	3	96
HLD	39	96	4	96
STR	40	0	2
SCL	40	0	2	96	144	7
STR	41	0	6
SCL	41	0	6	96	144	3
STR	42	0	2
SI_	42	0	2	96	144	7
TAP	43	0	6
TAP	43	96	6
TAP	43	192	7
TAP	43	288	7
XTP	44	0	0
XTP	44	96	0
XTP	44	96	7
BRK	44	192	1
BRK	44	192	6
TAP	45	0	0
TAP	45	96	1
TAP	45	192	2
TAP	45	240	2
TAP	45	288	2
TAP	46	0	3
TAP	46	96	4
XTP	46	192	3
XTP	46	192	5
TAP	47	0	5
TAP	47	48	5
TAP	47	96	4
TAP	47	192	2
TAP	47	240	2
TAP	47	288	3
XTP	48	0	3
XTP	48	0	4
XTP	48	96	2
XTP	48	96	5
BRK	48	192	1
BRK	48	192	6
TAP	49	0	7
TAP	49	96	6
TAP	49	192	5
TAP	49	240	5
TAP	49	288	5
TAP	50	0	4
TAP	50	96	3
XTP	50	192	2
XTP	50	192	4
XTP	51	0	1
XTP	51	96	0
XTP	51	192	0
XTP	51	192	7
STR	51	288	1
SV_	51	288	1	96	192	3
STR	51	288	6
SV_	51	288	6	96	192	4
TAP	53	0	0
TAP	53	96	1
TAP	53	192	2
TAP	53	240	2
TAP	53	288	2
TAP	54	0	3
TAP	54	48	3
TAP	54	96	4
XTP	54	192	3
XTP	54	192	5
TAP	55	0	5
TAP	55	48	5
TAP	55	96	4
TAP	55	96	5
TAP	55	192	2
TAP	55	240	2
TAP	55	288	2
TAP	55	288	3
XTP	56	0	3
XTP	56	0	4
XTP	56	96	2
XTP	56	96	5
BRK	56	192	1
BRK	56	192	6
TAP	57	0	7
TAP	57	96	6
TAP	57	192	5
TAP	57	240	5
TAP	57	288	5
TAP	58	0	4
TAP	58	48	4
TAP	58	96	3
XTP	58	192	2
XTP	58	192	4
STR	59	0	0
SCR	59	0	0	96	144	3
STR	60	0	4
SCR	60	0	4	96	144	7
TAP	61	0	1
TAP	61	96	0
TAP	61	96	1
TAP	61	192	6
TAP	61	288	6
TAP	61	288	7
TAP	62	0	5
TAP	62	96	4
TAP	62	96	5
XTP	62	192	3
XTP	62	192	6
HLD	63	0	5	96
TAP	63	96	4
TAP	63	192	3
TAP	63	288	2
STR	64	0	3
SCL	64	0	3	96	144	0
STR	64	0	4
SCR	64	0	4	96	144	7
TAP	65	0	6
TAP	65	96	6
TAP	65	96	7
TAP	65	192	1
TAP	65	288	0
TAP	65	288	1
TAP	66	0	2
TAP	66	96	2
TAP	66	96	3
XTP	66	192	1
XTP	66	192	4
HLD	67	0	2	96
TAP	67	96	3
HLD	67	192	5	96
TAP	67	288	4
XTP	68	0	2
XTP	68	0	3
XTP	68	96	1
XTP	68	96	4
BRK	68	192	0
BRK	68	192	5
TAP	69	0	6
TAP	69	96	6
TAP	69	96	7
TAP	69	192	1
TAP	69	288	0
TAP	69	288	1
TAP	70	0	2
TAP	70	96	2
TAP	70	96	3
XTP	70	192	1
XTP	70	192	4
HLD	71	0	2	96
TAP	71	96	3
TAP	71	192	4
TAP	71	288	5
STR	72	0	3
SV_	72	0	3	96	144	0
STR	72	0	5
SV_	72	0	5	96	144	0
TAP	73	0	1
TAP	73	96	0
TAP	73	96	1
TAP	73	192	6
TAP	73	288	6
TAP	73	288	7
TAP	74	0	5
TAP	74	96	4
TAP	74	96	5
XTP	74	192	3
XTP	74	192	6
HLD	75	0	5	96
TAP	75	96	4
HLD	75	192	2	96
TAP	75	288	3
XTP	76	0	4
XTP	76	0	5
XTP	76	96	3
XTP	76	96	6
XTP	76	192	2
XTP	76	192	7
TAP	77	0	0
TAP	77	96	1
TAP	77	192	2
TAP	77	288	2
TAP	77	288	3
TAP	78	0	4
TAP	78	96	5
TAP	78	192	6
TAP	78	288	6
TAP	78	288	7
TAP	79	0	0
XTP	79	96	0
XTP	79	96	7
XTP	79	192	0
XTP	79	192	7
XTP	79	288	1
XTP	79	288	6
BRK	80	0	2
BRK	80	0	5
TTP	80	192	3	B	0	L1
TTP	80	288	4	B	0	L1
THO	81	0	0	48	C	1	L1

T_REC_TAP	168
T_REC_BRK	12
T_REC_XTP	70
T_REC_HLD	18
T_REC_XHO	2
T_REC_STR	14
T_REC_BST	0
T_REC_XST	0
T_REC_TTP	15
T_REC_THO	2
T_REC_SLD	14
T_REC_ALL	315
T_NUM_TAP	267
T_NUM_BRK	12
T_NUM_HLD	22
T_NUM_SLD	14
T_NUM_ALL	315
T_JUDGE_TAP	279
T_JUDGE_HLD	74
T_JUDGE_SLD	14
T_JUDGE_ALL	367
TTM_EACHPAIRS	65
TTM_SCR_TAP	133500
TTM_SCR_BRK	31200
TTM_SCR_HLD	22000
TTM_SCR_SLD	21000
TTM_SCR_ALL	207700
TTM_SCR_S	200350
TTM_SCR_SS	206500
TTM_RAT_ACV	10058

