VERSION	0.00.00	1.03.00
FES_MODE	0
BPM_DEF	136.000	136.000	136.000	136.000
MET_DEF	4	4
RESOLUTION	384
CLK_DEF	384
COMPATIBLE_CODE	MA2

BPM	0	0	136.000
MET	0	0	4	4
CLK	0	0
CLK	0	96
CLK	0	192
CLK	0	288

TAP	4	0	3
TAP	5	0	3
TAP	6	0	4
TAP	7	0	4
TTP	8	0	3	B	0	L1
TTP	9	0	4	B	0	L1
THO	10	0	0	336	C	1	L1
TAP	12	0	7
TAP	12	192	7
TAP	13	0	7
TAP	14	0	0
TAP	14	192	0
XTP	15	0	0
TAP	16	0	7
TAP	16	192	7
TAP	17	0	0
TAP	17	0	7
TAP	18	0	0
TAP	18	192	0
BRK	19	0	0
BRK	19	0	7
TAP	20	0	7
TAP	20	192	7
TAP	21	0	0
TAP	21	192	0
STR	22	0	7
SI_	22	0	7	96	288	3
HLD	24	0	2	192
TAP	25	0	3
TAP	25	192	3
XTP	26	0	4
XTP	26	192	4
BRK	27	0	4
TAP	28	0	5
TAP	28	96	5
TAP	28	192	5
TAP	29	0	6
TAP	29	96	6
TAP	29	192	6
TAP	30	0	7
TAP	30	96	7
TAP	30	192	7
HLD	31	0	0	168
HLD	31	0	7	168
TAP	32	0	6
TAP	32	96	6
TAP	32	192	6
TAP	33	0	5
TAP	33	96	5
STR	33	192	5
SI_	33	192	5	96	288	2
TAP	35	0	1
TAP	35	96	1
BRK	35	192	1
TAP	36	0	2
TAP	36	96	2
TAP	36	192	3
TAP	36	288	3
TAP	37	0	4
TAP	37	96	4
TAP	37	192	4
TAP	38	0	5
TAP	38	96	5
TAP	38	192	4
TAP	38	288	4
XTP	39	96	3
XTP	39	96	4
TAP	40	0	2
TAP	40	96	2
TAP	40	192	3
TAP	40	288	3
TAP	41	0	4
TAP	41	96	4
TAP	41	192	4
TAP	42	0	5
TAP	42	96	5
TAP	42	192	4
TAP	42	288	4
HLD	43	0	3	192
BRK	44	0	3
BRK	44	0	4
TAP	45	0	3
TAP	45	96	3
TAP	45	192	3
TAP	46	0	2
TAP	46	96	2
TAP	46	192	2
TAP	47	0	1
TAP	47	96	1
TAP	47	192	0
TAP	47	288	0
TAP	48	0	7
TAP	48	96	7
TAP	48	192	0
TAP	48	192	7
TAP	49	0	6
TAP	49	96	6
TAP	49	192	6
TAP	50	0	5
TAP	50	96	5
TAP	50	192	5
TAP	51	0	4
TAP	51	96	4
TAP	51	192	3
TAP	51	288	3
XHO	52	0	3	192
XHO	52	0	4	192
TAP	53	0	4
TAP	53	96	4
TAP	53	192	4
TAP	54	0	5
TAP	54	96	5
TAP	54	192	5
TAP	55	0	6
TAP	55	96	6
TAP	55	192	7
TAP	55	288	7
TAP	56	0	0
TAP	56	0	7
TAP	56	96	0
TAP	56	96	7
XTP	56	192	1
XTP	56	192	6
TAP	57	0	1
TAP	57	96	1
TAP	57	192	1
TAP	58	0	2
TAP	58	96	2
TAP	58	192	2
BRK	59	0	3
BRK	59	0	4
TAP	60	0	3
TAP	60	0	4
TAP	60	192	3
TAP	60	192	4
TTP	61	0	2	B	0	L1
TTP	62	0	1	B	0	L1
TTP	63	0	0	B	0	L1
TTP	64	0	7	B	0	L1
TTP	65	0	6	B	0	L1
TTP	66	0	5	B	0	L1
THO	67	0	0	384	C	1	L1
TAP	69	0	7
TAP	69	96	7
TAP	69	192	7
TAP	70	0	6
TAP	70	96	6
TAP	70	192	6
TAP	71	0	5
TAP	71	96	5
TAP	71	192	5
TAP	72	0	4
TAP	72	96	3
BRK	72	192	4
TAP	73	0	3
TAP	73	96	3
TAP	73	192	3
TAP	74	0	2
TAP	74	96	2
TAP	74	192	2
TAP	75	0	1
TAP	75	96	1
TAP	75	192	1
HLD	76	0	0	192
XTP	77	0	0
XTP	77	0	1
XTP	77	192	0
XTP	77	192	1
XTP	78	0	6
XTP	78	0	7
XTP	78	192	6
XTP	78	192	7
STR	79	0	0
SI_	79	0	0	96	288	4
XHO	80	192	5	240

T_REC_TAP	127
T_REC_BRK	9
T_REC_XTP	15
T_REC_HLD	5
T_REC_XHO	3
T_REC_STR	3
T_REC_BST	0
T_REC_XST	0
T_REC_TTP	8
T_REC_THO	2
T_REC_SLD	3
T_REC_ALL	175
T_NUM_TAP	153
T_NUM_BRK	9
T_NUM_HLD	10
T_NUM_SLD	3
T_NUM_ALL	175
T_JUDGE_TAP	162
T_JUDGE_HLD	48
T_JUDGE_SLD	3
T_JUDGE_ALL	213
TTM_EACHPAIRS	17
TTM_SCR_TAP	76500
TTM_SCR_BRK	23400
TTM_SCR_HLD	10000
TTM_SCR_SLD	4500
TTM_SCR_ALL	114400
TTM_SCR_S	110100
TTM_SCR_SS	113500
TTM_RAT_ACV	10079

