VERSION	0.00.00	1.03.00
FES_MODE	0
BPM_DEF	170.000	170.000	170.000	170.000
MET_DEF	4	4
RESOLUTION	384
CLK_DEF	384
COMPATIBLE_CODE	MA2

BPM	0	0	170.000
MET	0	0	4	4

TAP	1	0	2
TAP	1	24	3
TAP	1	48	2
TAP	1	72	3
TAP	1	96	2
TAP	1	144	5
TAP	1	168	4
TAP	1	192	5
TAP	1	216	4
TAP	1	240	5
TAP	1	288	2
TAP	1	312	3
STR	1	336	2
SUR	1	336	2	96	240	4
TAP	1	360	3
TAP	2	0	2
TAP	3	0	5
TAP	3	24	4
TAP	3	48	5
TAP	3	72	4
TAP	3	96	5
TAP	3	144	2
TAP	3	168	3
TAP	3	192	2
TAP	3	216	3
TAP	3	240	2
TAP	3	288	5
TAP	3	312	4
STR	3	336	5
SXL	3	336	5	96	240	2
TAP	3	360	4
TAP	4	0	5
TAP	5	0	2
TAP	5	24	3
TAP	5	48	2
TAP	5	72	3
TAP	5	96	2
TAP	5	144	5
TAP	5	168	4
TAP	5	192	5
TAP	5	216	4
TAP	5	240	5
TAP	5	288	2
TAP	5	312	3
STR	5	336	2
SLL	5	336	2	96	240	4
SLL	5	336	2	96	240	5
TAP	5	360	3
TAP	6	0	2
TAP	7	0	5
TAP	7	24	4
TAP	7	48	5
TAP	7	72	4
TAP	7	96	5
TAP	7	144	2
TAP	7	168	3
TAP	7	192	2
TAP	7	216	3
TAP	7	240	2
TAP	7	288	5
TAP	7	312	4
STR	7	336	5
SUR	7	336	5	96	240	7
SXR	7	336	5	96	240	7
TAP	7	360	4
TAP	8	0	5
TTP	9	0	4	E	0	M1
TTP	9	96	3	E	0	M1
TTP	9	96	5	E	0	M1
TTP	9	192	0	C	0	M1
TTP	9	192	2	E	0	M1
TTP	9	192	6	E	0	M1
TAP	9	336	7
TAP	9	360	0
STR	10	0	7
SCL	10	0	7	96	48	4
TAP	10	96	2
TAP	10	144	1
STR	10	192	0
SCR	10	192	0	96	48	3
TAP	10	288	5
TAP	10	336	6
STR	11	0	7
SCL	11	0	7	96	48	4
TAP	11	96	2
TAP	11	144	1
STR	11	192	0
SCR	11	192	0	96	48	3
TAP	11	288	5
TAP	11	336	6
STR	12	0	7
SCL	12	0	7	96	48	4
TAP	12	96	2
TAP	12	144	1
STR	12	192	0
SCR	12	192	0	96	48	3
TAP	12	288	5
TAP	12	336	6
STR	13	0	7
SCL	13	0	7	96	48	4
TAP	13	96	2
TAP	13	144	1
TAP	13	192	0
TAP	13	288	0
TAP	13	288	7
TAP	14	0	1
TAP	14	0	4
TAP	14	48	2
TAP	14	72	3
TAP	14	120	3
TAP	14	144	1
STR	14	192	0
SI_	14	192	0	96	48	4
XTP	14	288	0
TAP	15	0	3
TAP	15	0	6
TAP	15	48	5
TAP	15	72	4
TAP	15	120	4
TAP	15	144	5
STR	15	192	7
SI_	15	192	7	96	48	3
XTP	15	288	7
STR	16	0	2
SCR	16	0	2	96	48	5
TAP	16	96	5
STR	16	192	6
SCR	16	192	6	96	48	1
TAP	16	288	1
TAP	17	0	2
TAP	17	48	3
TAP	17	96	4
TAP	17	144	3
TAP	17	192	4
TAP	17	240	5
TAP	17	288	6
TAP	17	336	7
STR	18	0	0
SCL	18	0	0	96	192	1
TTP	18	96	0	C	1	M1
TAP	19	0	3
TAP	19	0	4
TAP	19	48	2
TAP	19	48	5
BRK	19	96	1
BRK	19	96	6
TAP	19	288	3
TAP	19	288	4
HLD	20	0	2	288
HLD	20	0	5	288
TAP	21	0	2
TAP	21	0	5
TAP	21	48	3
TAP	21	72	4
TAP	21	120	4
TAP	21	144	3
STR	21	192	1
SI_	21	192	1	96	48	3
STR	21	192	6
SI_	21	192	6	96	48	4
XTP	21	288	1
XTP	21	288	6
TAP	22	0	6
TAP	22	48	5
TAP	22	96	3
TAP	22	96	4
TAP	22	144	2
TAP	22	192	1
TAP	22	240	2
TAP	22	288	3
TAP	22	288	5
TAP	22	336	6
TAP	23	0	7
TAP	23	48	6
TAP	23	96	4
TAP	23	96	5
TAP	23	144	3
TAP	23	192	2
TAP	23	240	1
TAP	23	288	0
TAP	23	288	7
TAP	23	336	6
TAP	24	0	5
TAP	24	48	6
TAP	24	96	1
TAP	24	96	7
TAP	24	144	2
TAP	24	192	3
TAP	24	240	2
TAP	24	288	2
TAP	24	288	4
TAP	24	336	5
TAP	25	0	4
TAP	25	48	5
TAP	25	96	3
TAP	25	96	5
TAP	25	144	2
TAP	25	192	1
TAP	25	240	0
TAP	25	288	6
TAP	25	288	7
TAP	25	336	5
TAP	26	0	4
TAP	26	48	3
TAP	26	96	2
TAP	26	96	4
TAP	26	144	5
TAP	26	192	6
TAP	26	240	7
STR	26	288	0
SCR	26	288	0	96	48	3
TAP	26	288	6
STR	27	0	7
SCL	27	0	7	96	48	4
TAP	27	96	0
TAP	27	192	1
TAP	27	192	6
TAP	27	240	2
TAP	27	240	5
TAP	27	288	3
TAP	27	288	4
TAP	28	0	1
TAP	28	48	2
TAP	28	96	3
TAP	28	96	4
TAP	28	144	5
TAP	28	192	6
TAP	28	240	5
TAP	28	288	2
TAP	28	288	4
TAP	28	336	1
TAP	29	0	0
TAP	29	48	1
TAP	29	96	2
TAP	29	96	3
TAP	29	144	4
TAP	29	192	5
TAP	29	240	6
TAP	29	288	0
TAP	29	288	7
TAP	29	336	1
TAP	30	0	2
TAP	30	48	1
TAP	30	96	0
TAP	30	96	6
TAP	30	144	5
TAP	30	192	4
TAP	30	240	5
TAP	30	288	3
TAP	30	288	5
TAP	30	336	2
TAP	31	0	3
TAP	31	48	2
TAP	31	96	2
TAP	31	96	4
TAP	31	144	5
TAP	31	192	6
TAP	31	240	7
TAP	31	288	0
TAP	31	288	7
TAP	31	336	0
TAP	31	336	7
STR	32	48	1
SI_	32	48	1	96	48	3
STR	32	48	6
SI_	32	48	6	96	48	4
XTP	32	144	1
XTP	32	144	6
TAP	32	240	0
TAP	32	240	7
TAP	32	288	1
TAP	32	288	6
STR	32	336	2
SCL	32	336	2	96	144	5
TAP	32	336	5
TTP	33	48	0	C	1	M1
TAP	33	288	2
STR	33	288	5
SCL	33	288	5	96	96	2
TAP	34	0	1
STR	34	96	1
SUR	34	96	1	96	96	6
TAP	34	192	6
STR	34	288	7
SCL	34	288	7	96	144	0
TAP	35	0	0
TAP	35	240	3
TAP	35	240	4
TAP	35	288	3
TAP	35	288	4
HLD	36	0	5	144
TAP	36	144	4
STR	36	192	4
SI_	36	192	4	96	48	1
TAP	36	288	6
TAP	37	0	0
TAP	37	0	7
TTP	37	96	2	B	0	M1
TTP	37	96	2	E	0	M1
TTP	37	96	3	B	0	M1
TTP	37	96	4	E	0	M1
TTP	37	192	0	C	1	M1
TTP	37	192	4	B	0	M1
TTP	37	192	5	B	0	M1
TTP	37	192	6	E	0	M1
TAP	37	288	0
TAP	37	288	7
HLD	38	0	2	144
TAP	38	144	3
STR	38	192	3
SI_	38	192	3	96	48	6
TAP	38	288	1
TAP	39	0	0
TAP	39	0	7
TTP	39	96	4	B	0	M1
TTP	39	96	4	E	0	M1
TTP	39	96	5	B	0	M1
TTP	39	96	6	E	0	M1
TTP	39	192	0	C	1	M1
TTP	39	192	2	B	0	M1
TTP	39	192	2	E	0	M1
TTP	39	192	3	B	0	M1
TAP	39	288	0
TAP	39	288	7
HLD	40	0	5	144
TAP	40	144	4
STR	40	192	4
SI_	40	192	4	96	48	1
TAP	40	288	6
TAP	41	0	0
TAP	41	0	7
TTP	41	96	2	B	0	M1
TTP	41	96	2	E	0	M1
TTP	41	96	3	B	0	M1
TTP	41	96	4	E	0	M1
TTP	41	192	0	C	1	M1
TTP	41	192	4	B	0	M1
TTP	41	192	5	B	0	M1
TTP	41	192	6	E	0	M1
TAP	41	288	0
TAP	41	288	7
HLD	42	0	2	144
TAP	42	144	3
STR	42	192	3
SI_	42	192	3	96	48	6
TAP	42	288	1
TAP	43	0	0
TAP	43	0	7
TTP	43	96	4	B	0	M1
TTP	43	96	4	E	0	M1
TTP	43	96	5	B	0	M1
TTP	43	96	6	E	0	M1
TTP	43	192	0	C	1	M1
TTP	43	192	2	E	0	M1
TTP	43	192	2	B	0	M1
TTP	43	192	3	B	0	M1
TAP	43	288	0
TAP	43	288	7
HLD	44	0	6	144
TAP	44	144	7
STR	44	192	7
SCR	44	192	7	96	48	2
TAP	44	288	5
TAP	45	0	1
TAP	45	0	4
TTP	45	96	2	B	0	M1
TTP	45	96	2	E	0	M1
TTP	45	96	3	B	0	M1
TTP	45	96	4	E	0	M1
TTP	45	192	0	C	1	M1
TTP	45	192	4	B	0	M1
TTP	45	192	5	B	0	M1
TTP	45	192	6	E	0	M1
TAP	45	288	0
TAP	45	288	7
HLD	46	0	1	144
TAP	46	144	0
STR	46	192	0
SCL	46	192	0	96	48	5
TAP	46	288	2
TAP	47	0	3
TAP	47	0	6
TAP	47	48	3
TAP	47	48	6
TAP	47	144	1
TAP	47	144	4
TAP	47	192	1
TAP	47	192	4
TAP	47	288	3
TAP	47	288	5
STR	48	0	6
SCL	48	0	6	96	48	3
STR	48	144	1
SCL	48	144	1	96	48	6
STR	48	288	4
SCL	48	288	4	96	48	1
HLD	49	0	6	96
TAP	49	96	7
TAP	49	192	0
TAP	49	192	5
TAP	49	288	2
TAP	49	288	3
STR	50	0	1
SCR	50	0	1	96	48	4
STR	50	144	6
SCR	50	144	6	96	48	1
STR	50	288	3
SCR	50	288	3	96	48	6
HLD	51	0	1	96
TAP	51	96	0
TAP	51	192	2
TAP	51	192	7
TAP	51	288	4
TAP	51	288	5
STR	52	0	6
SCL	52	0	6	96	48	3
STR	52	144	1
SCL	52	144	1	96	48	6
STR	52	288	4
SCL	52	288	4	96	48	1
HLD	53	0	6	96
TAP	53	96	7
TAP	53	192	0
TAP	53	192	5
TAP	53	288	2
TAP	53	288	3
TAP	54	0	4
TAP	54	96	5
TAP	54	192	6
TAP	54	288	7
TAP	55	0	0
TAP	55	96	1
TAP	55	192	2
TAP	55	288	3
TTP	56	0	0	E	0	M1
TTP	56	0	7	B	0	M1
TTP	56	96	1	B	0	M1
TTP	56	96	2	E	0	M1
TTP	56	192	3	B	0	M1
TTP	56	192	4	E	0	M1
TTP	56	288	5	B	0	M1
TTP	56	288	6	E	0	M1
TTP	57	0	0	C	0	M1
TTP	57	192	4	E	0	M1
TTP	58	0	0	C	0	M1
TAP	58	192	0
TAP	58	192	7
TAP	58	336	3
TAP	58	360	4
TAP	59	0	2
TAP	59	0	5
TTP	59	96	3	E	0	M1
TTP	59	96	5	E	0	M1
TTP	59	192	2	E	0	M1
TTP	59	192	6	E	0	M1
TTP	59	288	1	E	0	M1
TTP	59	288	7	E	0	M1
HLD	60	0	1	192
HLD	60	0	6	192
BRK	60	288	0
BRK	60	288	7
BRK	60	336	0
BRK	60	336	7
TAP	61	48	3
TAP	61	48	4
TAP	61	96	3
TAP	61	96	4
TAP	61	144	3
TAP	61	144	4
TAP	61	192	2
TAP	61	192	5
TAP	61	240	2
TAP	61	240	5
TAP	61	288	1
TAP	61	288	6
TAP	61	336	1
TAP	61	336	6
TAP	62	0	0
TAP	62	0	7
TAP	62	48	5
TAP	62	72	4
TAP	62	96	6
TAP	62	144	0
TAP	62	144	7
TAP	62	192	2
TAP	62	216	3
TAP	62	240	1
TAP	62	288	0
TAP	62	288	7
TAP	62	336	5
TAP	62	360	4
TAP	63	0	6
TAP	63	48	0
TAP	63	48	7
TAP	63	96	2
TAP	63	120	3
TAP	63	144	1
XTP	63	192	0
XTP	63	192	7
XTP	63	240	1
XTP	63	240	6
XTP	63	288	2
XTP	63	288	5
XTP	63	336	3
XTP	63	336	4
STR	64	0	3
SI_	64	0	3	96	48	0
STR	64	0	4
SI_	64	0	4	96	48	7
XTP	64	96	3
XTP	64	96	4
XST	64	192	2
SUL	64	192	2	96	48	6
XST	64	192	6
SUL	64	192	6	96	48	2
XST	65	0	1
SUR	65	0	1	96	48	5
XST	65	0	5
SUR	65	0	5	96	48	1
XTP	65	192	2
XTP	65	192	6
TAP	65	240	7
TAP	65	288	1
TAP	65	288	5
TAP	65	336	2
STR	66	0	3
SCL	66	0	3	96	48	0
STR	66	0	7
SCL	66	0	7	96	48	4
STR	66	192	0
SCR	66	192	0	96	48	3
STR	66	192	4
SCR	66	192	4	96	48	7
TAP	67	0	3
TAP	67	0	7
TAP	67	48	2
TAP	67	48	6
TAP	67	96	1
TAP	67	96	5
TAP	67	144	0
TAP	67	144	4
TAP	67	240	7
TAP	67	288	7
TAP	67	336	0
TAP	68	0	1
TAP	68	0	4
TAP	68	72	2
STR	68	96	3
SCL	68	96	3	96	48	0
SCR	68	96	3	96	48	6
TAP	68	144	3
TAP	68	288	1
TAP	68	288	5
TAP	69	0	3
TAP	69	0	6
TAP	69	72	5
STR	69	96	4
SCL	69	96	4	96	48	1
SCR	69	96	4	96	48	7
TAP	69	144	4
TAP	69	288	2
TAP	69	288	6
TAP	69	336	7
HLD	70	0	7	72
TAP	70	72	5
TAP	70	144	0
HLD	70	192	0	72
TAP	70	264	2
TAP	70	336	7
TAP	71	0	0
TAP	71	0	7
TAP	71	72	1
TAP	71	72	3
TAP	71	144	4
TAP	71	144	6
TAP	71	192	0
TAP	71	192	7
TAP	71	264	1
TAP	71	264	3
TAP	71	336	4
TAP	71	336	6
TAP	72	0	7
TAP	72	24	0
TAP	72	48	7
BRK	72	96	2
BRK	72	96	5
STR	72	192	3
SV_	72	192	3	96	48	0
STR	72	192	7
SV_	72	192	7	96	48	4
STR	73	0	0
SV_	73	0	0	96	48	3
STR	73	0	4
SV_	73	0	4	96	48	7
TAP	73	192	2
TAP	73	192	6
STR	73	288	6
SCL	73	288	6	96	48	3
STR	73	288	7
SCR	73	288	7	96	48	2
STR	74	96	0
SCL	74	96	0	96	48	5
STR	74	96	1
SCR	74	96	1	96	48	4
TAP	74	288	6
TAP	74	288	7
TAP	75	0	0
TAP	75	0	1
TAP	75	48	2
TAP	75	48	7
TAP	75	96	3
TAP	75	96	6
TAP	75	144	4
TAP	75	144	5
TAP	75	240	2
TAP	75	240	5
TAP	75	288	2
STR	75	288	5
SI_	75	288	5	96	48	2
STR	76	0	0
SI_	76	0	0	96	48	4
STR	76	96	7
SI_	76	96	7	96	48	3
STR	76	192	2
SCR	76	192	2	96	48	5
STR	76	288	6
SCR	76	288	6	96	48	1
TAP	77	0	2
HLD	77	48	2	96
BRK	77	144	7
TAP	77	240	1
TAP	77	240	6
STR	77	288	1
SI_	77	288	1	96	48	4
TAP	77	288	6
STR	78	0	5
SI_	78	0	5	96	48	0
TAP	78	96	1
TAP	78	192	2
TAP	78	216	3
TAP	78	240	2
TAP	78	264	3
STR	78	288	2
SI_	78	288	2	96	48	7
STR	79	0	6
SI_	79	0	6	96	48	3
TAP	79	96	0
TAP	79	144	0
TAP	79	240	1
TAP	79	240	5
STR	79	288	1
SI_	79	288	1	96	48	5
TAP	79	288	5
STR	80	0	6
SI_	80	0	6	96	48	2
STR	80	96	3
SI_	80	96	3	96	48	0
STR	80	192	7
SCL	80	192	7	96	48	4
TAP	80	288	0
TAP	80	336	0
THO	81	0	0	144	C	1	M1
TAP	81	240	7
TAP	81	288	7
TAP	82	0	2
TAP	82	24	3
TAP	82	48	2
TAP	82	144	5
TAP	82	168	4
TAP	82	192	6
TAP	82	240	7
TAP	82	288	0
TAP	82	288	7
TAP	83	0	5
TAP	83	24	4
TAP	83	48	5
TAP	83	144	2
TAP	83	168	3
TAP	83	192	1
TAP	83	240	0
TAP	83	288	0
TAP	83	288	7
TAP	84	0	1
TAP	84	0	4
TAP	84	48	5
TAP	84	72	4
TAP	84	120	4
TAP	84	144	6
TAP	84	192	3
TAP	84	192	6
TAP	84	240	2
TAP	84	264	3
TAP	84	312	3
TAP	84	336	1
STR	85	0	7
SCL	85	0	7	96	96	3
STR	85	96	3
SCL	85	96	3	96	96	7
STR	85	192	7
SCL	85	192	7	96	96	3
STR	85	288	3
SCL	85	288	3	96	192	3
TTP	86	0	0	C	1	M1
BRK	86	288	1
BRK	86	288	6
STR	87	0	2
SI_	87	0	2	96	48	0
TAP	87	96	4
TAP	87	144	4
STR	87	192	5
SI_	87	192	5	96	48	7
TAP	87	288	3
TAP	87	336	3
STR	88	0	2
SI_	88	0	2	96	48	0
TAP	88	96	4
TAP	88	144	4
STR	88	192	5
SI_	88	192	5	96	48	7
TAP	88	288	4
TAP	88	336	4
STR	89	0	3
SI_	89	0	3	96	48	1
TAP	89	96	4
TAP	89	144	4
STR	89	192	5
SI_	89	192	5	96	48	7
TAP	89	288	3
TAP	89	336	3
STR	90	0	2
SI_	90	0	2	96	48	0
STR	90	96	5
SI_	90	96	5	96	48	7
STR	90	192	3
SI_	90	192	3	96	48	1
TAP	90	288	7
TAP	91	0	0
TAP	91	0	7
TAP	91	48	5
TAP	91	72	4
TAP	91	120	4
TAP	91	144	6
TAP	91	192	0
TAP	91	192	7
TAP	91	288	4
TAP	91	288	6
TAP	92	0	3
TAP	92	0	5
TAP	92	48	2
TAP	92	72	3
TAP	92	120	3
TAP	92	144	1
TAP	92	192	0
TAP	92	192	7
TAP	92	288	1
TAP	92	288	3
STR	93	0	2
SI_	93	0	2	96	48	0
TAP	93	96	3
TAP	93	144	4
STR	93	192	5
SI_	93	192	5	96	48	7
TAP	93	288	4
TAP	93	336	3
STR	94	0	2
SI_	94	0	2	96	48	0
TAP	94	48	2
STR	94	96	5
SI_	94	96	5	96	48	7
TAP	94	144	5
STR	94	192	3
SI_	94	192	3	96	48	1
TAP	94	240	3
TAP	94	288	7
TAP	94	336	7
TAP	95	0	0
TAP	95	0	7
TAP	95	144	4
TAP	95	168	3
TAP	95	192	5
BRK	96	0	1
BRK	96	0	6
XTP	96	208	0
XTP	96	208	7
XTP	96	272	1
XTP	96	272	2
XTP	96	336	3
XTP	96	336	4
XTP	97	32	5
XTP	97	32	6
XTP	97	96	0
XTP	97	96	7
XTP	97	176	1
XTP	97	176	6
XTP	97	352	0
XTP	98	0	7
XTP	98	32	0
TAP	99	32	3
TAP	99	64	4
STR	99	96	2
SUR	99	96	2	96	288	4

T_REC_TAP	482
T_REC_BRK	13
T_REC_XTP	33
T_REC_HLD	16
T_REC_XHO	0
T_REC_STR	89
T_REC_BST	0
T_REC_XST	4
T_REC_TTP	66
T_REC_THO	1
T_REC_SLD	97
T_REC_ALL	801
T_NUM_TAP	674
T_NUM_BRK	13
T_NUM_HLD	17
T_NUM_SLD	97
T_NUM_ALL	801
T_JUDGE_TAP	687
T_JUDGE_HLD	53
T_JUDGE_SLD	97
T_JUDGE_ALL	837
TTM_EACHPAIRS	140
TTM_SCR_TAP	337000
TTM_SCR_BRK	33800
TTM_SCR_HLD	17000
TTM_SCR_SLD	145500
TTM_SCR_ALL	533300
TTM_SCR_S	516050
TTM_SCR_SS	532000
TTM_RAT_ACV	10024

