VERSION	0.00.00	1.03.00
FES_MODE	0
BPM_DEF	170.000	170.000	170.000	170.000
MET_DEF	4	4
RESOLUTION	384
CLK_DEF	384
COMPATIBLE_CODE	MA2

BPM	0	0	170.000
MET	0	0	4	4
CLK	0	0
CLK	0	96
CLK	0	192
CLK	0	288

TAP	1	0	0
TAP	1	96	1
TAP	1	192	2
TAP	1	288	3
TAP	2	0	2
TAP	2	0	4
TAP	3	0	7
TAP	3	96	6
TAP	3	192	5
TAP	3	288	4
TAP	4	0	3
TAP	4	0	5
TAP	5	0	0
TAP	5	96	1
TAP	5	192	2
TAP	5	288	3
TAP	5	288	4
TAP	6	0	4
TAP	6	0	5
TAP	7	0	7
TAP	7	96	6
TAP	7	192	5
XTP	7	288	4
XTP	7	336	4
XTP	8	0	3
TTP	9	0	4	E	0	M1
TTP	9	96	3	E	0	M1
TTP	9	96	5	E	0	M1
TTP	9	192	0	C	0	M1
TTP	9	192	1	B	0	M1
TTP	9	192	6	B	0	M1
STR	10	0	0
SCR	10	0	0	96	96	4
TAP	11	0	4
TAP	11	96	3
TAP	11	96	5
TAP	11	192	4
TAP	11	192	6
STR	12	0	7
SCL	12	0	7	96	96	3
TAP	13	0	3
TAP	13	96	2
TAP	13	96	4
TAP	13	192	1
TAP	13	192	3
TAP	14	0	0
TAP	14	0	6
TAP	14	96	7
TAP	14	144	0
HLD	14	192	7	96
TAP	15	0	2
TAP	15	0	4
TAP	15	96	3
TAP	15	144	4
HLD	15	192	3	96
STR	16	0	6
SCL	16	0	6	96	96	2
HLD	16	192	0	96
TAP	17	0	1
TAP	17	0	7
TAP	17	96	0
TAP	17	96	6
TAP	17	192	5
TAP	17	192	7
TAP	17	288	4
TAP	17	288	6
HLD	18	0	7	384
STR	18	96	0
SCR	18	96	0	96	96	3
HLD	19	96	2	192
HLD	19	96	5	192
TTP	20	0	0	B	0	M1
TTP	20	0	1	B	0	M1
TTP	20	0	1	E	0	M1
TTP	20	192	2	B	0	M1
TTP	20	192	3	E	0	M1
TTP	20	192	3	B	0	M1
TAP	21	0	4
TAP	21	96	3
TAP	21	96	5
TAP	21	192	4
TAP	21	192	6
TTP	22	0	6	B	0	M1
TTP	22	0	7	B	0	M1
TTP	22	0	7	E	0	M1
TTP	22	192	4	B	0	M1
TTP	22	192	5	E	0	M1
TTP	22	192	5	B	0	M1
TAP	23	0	3
TAP	23	96	2
TAP	23	96	4
TAP	23	192	1
TAP	23	192	3
TTP	24	0	3	B	0	M1
TTP	24	0	4	E	0	M1
TTP	24	0	4	B	0	M1
TTP	24	192	5	B	0	M1
TTP	24	192	6	B	0	M1
TTP	24	192	6	E	0	M1
TAP	25	0	7
TAP	25	96	0
TAP	25	96	6
TAP	25	192	1
TAP	25	192	7
TTP	26	0	3	B	0	M1
TTP	26	0	4	B	0	M1
TTP	26	0	4	E	0	M1
TTP	26	192	1	B	0	M1
TTP	26	192	2	E	0	M1
TTP	26	192	2	B	0	M1
HLD	27	0	0	96
HLD	27	0	2	96
XHO	27	192	1	48
XHO	27	192	7	48
HLD	28	0	1	192
TAP	28	0	3
HLD	28	192	4	192
TAP	29	0	1
STR	29	96	4
SI_	29	96	4	96	48	7
TAP	30	0	0
HLD	30	0	2	192
HLD	30	192	7	192
TAP	31	0	2
STR	31	96	7
SI_	31	96	7	96	48	4
TAP	32	0	4
HLD	32	0	6	192
HLD	32	192	3	192
TAP	33	0	6
STR	33	96	3
SI_	33	96	3	96	48	0
HLD	34	0	5	192
TAP	34	0	7
HLD	34	192	0	192
TAP	35	0	5
TAP	35	96	3
TAP	35	96	4
TAP	35	192	2
TAP	35	192	5
STR	36	0	0
SUR	36	0	0	96	144	5
STR	36	0	1
SCR	36	0	1	96	144	4
TAP	37	0	4
TAP	37	96	3
TAP	37	96	5
TAP	37	192	2
TAP	37	192	6
STR	38	0	6
SCL	38	0	6	96	144	3
STR	38	0	7
SUL	38	0	7	96	144	2
TAP	39	0	3
TAP	39	96	2
TAP	39	96	4
TAP	39	192	1
TAP	39	192	5
STR	40	0	2
SCL	40	0	2	96	144	7
STR	40	0	3
SUL	40	0	3	96	144	6
TAP	41	0	7
TAP	41	96	0
TAP	41	96	6
TAP	41	192	1
TAP	41	192	5
STR	42	0	4
SUR	42	0	4	96	144	1
STR	42	0	5
SCR	42	0	5	96	144	0
TAP	43	0	0
TAP	43	0	1
XTP	43	96	2
XTP	43	144	2
XTP	43	192	3
TAP	44	0	3
HLD	44	0	5	192
TAP	44	96	3
HLD	44	192	3	192
TAP	44	288	5
TAP	45	0	5
TAP	45	96	4
TAP	45	96	6
TAP	45	192	3
TAP	45	192	7
HLD	46	0	2	192
TAP	46	0	4
TAP	46	96	4
HLD	46	192	4	96
STR	46	288	2
SCR	46	288	2	96	96	5
BRK	47	192	7
STR	48	0	3
SCL	48	0	3	96	96	1
HLD	48	0	5	384
TAP	48	288	0
HLD	49	0	1	192
TAP	49	96	3
TAP	49	192	4
HLD	50	0	1	384
STR	50	0	3
SCR	50	0	3	96	96	5
TAP	50	288	6
HLD	51	0	5	192
TAP	51	96	3
TAP	51	192	2
STR	52	0	4
SCL	52	0	4	96	96	2
HLD	52	0	6	384
TAP	52	288	1
HLD	53	0	2	96
TAP	53	96	4
TAP	53	192	3
TAP	53	192	5
HLD	54	0	2	576
STR	54	0	3
SCR	54	0	3	96	480	0
TAP	56	0	1
TAP	56	0	2
TAP	56	96	3
TAP	56	192	4
TAP	56	288	5
TAP	57	0	0
TAP	57	0	6
HLD	57	192	0	96
HLD	57	192	7	96
HLD	58	0	1	96
HLD	58	0	6	96
HLD	58	192	2	96
HLD	58	192	5	96
XTP	58	360	3
XTP	59	0	4
TAP	59	96	1
TAP	59	96	2
TAP	59	192	0
TAP	59	192	1
TAP	59	288	0
TAP	59	288	7
BST	60	0	1
SCR	60	0	1	96	96	4
TAP	60	192	5
TAP	60	288	0
TAP	60	288	6
BST	61	0	6
SCL	61	0	6	96	96	3
TAP	61	192	2
TAP	61	288	1
TAP	61	288	7
HLD	62	0	0	48
HLD	62	0	2	48
TAP	62	96	0
TAP	62	96	2
HLD	62	192	4	48
HLD	62	192	6	48
TAP	62	288	4
TAP	62	288	6
TAP	63	0	5
TAP	63	96	6
TAP	63	96	7
TAP	63	192	0
TAP	63	192	7
TAP	63	288	0
TAP	63	288	1
STR	64	0	7
SI_	64	0	7	96	96	3
TAP	64	192	2
TAP	64	288	1
TAP	64	288	7
STR	65	0	0
SI_	65	0	0	96	96	4
TAP	65	192	5
TAP	65	288	0
TAP	65	288	6
XTP	66	0	5
XTP	66	48	5
TAP	66	96	4
TAP	66	96	6
XTP	66	192	3
XTP	66	240	3
TAP	66	288	2
TAP	66	288	4
HLD	67	0	1	96
HLD	67	0	3	96
XTP	67	240	0
XTP	67	288	0
BST	68	0	6
SCL	68	0	6	96	96	3
TAP	68	192	2
TAP	68	288	1
TAP	68	288	7
BST	69	0	1
SCR	69	0	1	96	96	4
TAP	69	192	5
TAP	69	288	0
TAP	69	288	6
HLD	70	0	5	48
HLD	70	0	7	48
TAP	70	96	5
TAP	70	96	7
HLD	70	192	1	48
HLD	70	192	3	48
TAP	70	288	1
TAP	70	288	3
HLD	71	0	5	72
XHO	71	72	4	72
XTP	71	144	3
HLD	71	192	2	72
XHO	71	264	1	72
XTP	71	336	0
TAP	72	0	0
BRK	72	96	0
BRK	72	96	7
TAP	72	192	2
TAP	72	288	3
TAP	72	288	5
STR	73	0	7
SI_	73	0	7	96	96	3
TAP	73	192	2
TAP	73	288	1
TAP	73	288	7
HLD	74	0	6	96
XTP	74	48	0
XTP	74	96	0
HLD	74	192	1	96
XTP	74	240	7
XTP	74	288	7
STR	75	0	0
SI_	75	0	0	96	96	3
STR	75	0	6
SI_	75	0	6	96	96	3
HLD	76	0	1	96
HLD	76	96	0	96
XTP	76	192	2
XTP	76	240	3
TAP	76	288	2
HLD	77	0	6	96
HLD	77	96	7	96
XTP	77	192	5
XTP	77	240	4
TAP	77	288	5
HLD	78	0	2	96
HLD	78	96	3	96
XTP	78	192	4
XTP	78	240	5
TAP	78	288	4
HLD	79	0	5	96
TAP	79	96	4
XTP	79	192	4
XTP	79	192	5
STR	80	0	7
SCL	80	0	7	96	96	4
TAP	80	192	3
STR	80	288	1
SSR	80	288	1	96	192	5
XTP	80	288	7
XTP	82	0	2
XTP	82	0	4
TAP	82	48	2
TAP	82	48	4
XTP	82	144	3
XTP	82	144	5
TAP	82	192	3
TAP	82	192	5
XTP	83	0	1
XTP	83	0	7
TAP	83	48	1
TAP	83	48	7
XTP	83	144	0
XTP	83	144	6
TAP	83	192	0
TAP	83	192	6
HLD	84	0	1	96
XTP	84	48	0
XTP	84	96	0
HLD	84	192	6	96
XTP	84	240	7
XTP	84	288	7
HLD	85	0	2	96
XTP	85	48	3
XTP	85	96	4
HLD	85	192	5	96
XTP	85	240	4
XTP	85	288	3
TTP	86	0	0	C	1	M1
STR	87	0	2
SI_	87	0	2	96	96	0
STR	87	192	4
SI_	87	192	4	96	96	6
STR	88	0	3
SI_	88	0	3	96	96	1
STR	88	192	5
SI_	88	192	5	96	96	7
STR	89	0	0
SUR	89	0	0	96	96	4
STR	89	192	6
SUL	89	192	6	96	96	2
STR	90	0	1
SUR	90	0	1	96	96	5
STR	90	192	7
SUL	90	192	7	96	96	3
TAP	91	0	2
TAP	91	96	1
TAP	91	96	3
HLD	91	192	2	192
TAP	91	192	4
TAP	92	0	5
TAP	92	96	4
TAP	92	96	6
TAP	92	192	3
HLD	92	192	5	192
TAP	93	0	0
TAP	93	96	1
TAP	93	96	7
TAP	93	192	0
HLD	93	192	2	192
TAP	94	0	7
TAP	94	96	0
TAP	94	96	6
HLD	94	192	5	288
TAP	94	192	7
HLD	94	288	2	192
XTP	95	144	3
BRK	95	192	4
STR	96	0	7
SCL	96	0	7	96	864	0
XTP	99	0	0
XTP	99	32	7
XTP	99	64	0

T_REC_TAP	198
T_REC_BRK	4
T_REC_XTP	49
T_REC_HLD	63
T_REC_XHO	4
T_REC_STR	36
T_REC_BST	4
T_REC_XST	0
T_REC_TTP	31
T_REC_THO	0
T_REC_SLD	40
T_REC_ALL	429
T_NUM_TAP	314
T_NUM_BRK	8
T_NUM_HLD	67
T_NUM_SLD	40
T_NUM_ALL	429
T_JUDGE_TAP	322
T_JUDGE_HLD	200
T_JUDGE_SLD	40
T_JUDGE_ALL	562
TTM_EACHPAIRS	99
TTM_SCR_TAP	157000
TTM_SCR_BRK	20800
TTM_SCR_HLD	67000
TTM_SCR_SLD	60000
TTM_SCR_ALL	304800
TTM_SCR_S	294900
TTM_SCR_SS	304000
TTM_RAT_ACV	10026

