VERSION	0.00.00	1.03.00
FES_MODE	0
BPM_DEF	170.000	170.000	170.000	170.000
MET_DEF	4	4
RESOLUTION	384
CLK_DEF	384
COMPATIBLE_CODE	MA2

BPM	0	0	170.000
MET	0	0	4	4

XHO	1	0	4	288
XHO	1	0	5	288
TAP	2	0	5
TAP	2	96	4
TAP	2	192	3
TAP	2	192	4
HLD	3	0	2	288
HLD	3	0	3	288
TAP	4	0	2
TAP	4	96	3
TAP	4	192	3
TAP	4	192	4
HLD	5	0	4	288
HLD	5	0	6	288
TAP	6	0	5
TAP	6	96	4
TAP	6	192	3
TAP	6	192	4
HLD	7	0	1	288
HLD	7	0	3	288
TAP	8	0	2
TAP	8	96	3
TAP	8	96	4
XTP	8	192	2
XTP	8	192	5
XTP	9	0	0
XTP	9	96	1
XTP	9	192	2
TAP	10	0	1
TAP	10	96	0
XTP	10	192	6
XTP	10	192	7
TAP	11	0	6
TAP	11	96	7
XTP	11	192	0
XTP	11	192	1
TAP	12	0	1
TAP	12	96	1
TAP	12	192	0
TAP	12	288	0
TAP	13	0	7
TAP	13	96	6
XTP	13	192	6
XTP	13	192	7
HLD	14	0	0	192
HLD	14	0	6	192
HLD	15	0	1	192
HLD	15	0	7	192
TAP	16	0	1
TAP	16	96	1
XTP	16	192	0
XTP	16	192	1
TAP	17	0	6
TAP	17	96	6
XTP	17	192	6
XTP	17	192	7
TAP	18	0	0
TAP	18	96	0
TAP	18	192	7
TAP	18	288	7
XTP	19	0	0
XTP	19	0	7
BRK	19	96	1
BRK	19	96	6
HLD	20	0	5	192
TAP	20	192	4
HLD	21	0	3	192
TAP	21	192	4
TAP	22	0	5
TAP	22	96	5
TAP	22	192	4
TAP	22	288	4
TAP	23	0	3
TAP	23	96	2
XTP	23	192	2
XTP	23	192	3
TAP	24	0	2
TAP	24	96	2
TAP	24	192	3
TAP	25	0	5
TAP	25	96	5
TAP	25	192	4
TAP	26	0	2
TAP	26	96	2
TAP	26	192	3
TAP	26	288	3
TAP	27	0	4
TAP	27	96	5
XTP	27	192	4
XTP	27	192	6
TAP	28	0	5
TAP	28	96	5
TAP	28	192	4
TAP	28	192	5
TAP	29	0	2
TAP	29	96	2
TAP	29	192	2
TAP	29	192	3
TAP	30	0	5
TAP	30	96	5
TAP	30	192	4
TAP	30	288	4
TAP	31	0	3
TAP	31	96	2
XTP	31	192	1
XTP	31	192	3
TAP	32	0	2
TAP	32	96	1
TAP	32	192	2
TAP	32	192	3
TAP	33	0	5
TAP	33	96	6
TAP	33	192	4
TAP	33	192	5
TAP	34	0	2
TAP	34	96	2
TAP	34	192	1
TAP	34	288	1
XTP	35	0	0
XTP	35	96	0
XTP	35	96	7
BRK	35	192	1
BRK	35	192	6
HLD	36	0	5	384
HLD	37	0	4	384
HLD	38	0	3	384
TAP	39	0	2
TAP	39	96	2
XTP	39	192	2
XTP	39	192	3
HLD	40	0	2	384
HLD	41	0	3	384
HLD	42	0	4	384
TAP	43	0	5
TAP	43	96	5
XTP	43	192	4
XTP	43	192	5
TTP	44	0	5	B	0	L1
TTP	44	192	4	B	0	L1
TTP	45	0	4	E	0	L1
TTP	46	0	2	B	0	L1
TTP	46	192	3	B	0	L1
TTP	47	0	4	E	0	L1
TTP	48	0	6	B	0	L1
TTP	48	192	0	C	0	L1
TTP	49	0	2	B	0	L1
TTP	49	192	1	B	0	L1
TTP	50	0	0	C	0	L1
TTP	50	192	5	B	0	L1
TTP	51	0	0	C	0	L1
TTP	52	0	1	B	0	L1
TTP	52	192	0	C	0	L1
TTP	53	0	5	B	0	L1
TTP	53	192	6	B	0	L1
TTP	54	0	0	C	0	L1
TTP	54	192	2	B	0	L1
THO	55	0	0	384	C	0	L1
XHO	57	0	0	576
XHO	57	0	7	576
BRK	59	0	1
BRK	59	0	6
XTP	60	0	0
XTP	60	0	1
XTP	60	192	0
XTP	60	192	7
TAP	61	0	6
TAP	61	96	6
XTP	61	192	6
XTP	61	192	7
TAP	62	0	5
TAP	62	96	4
TAP	62	192	3
TAP	62	288	2
XTP	63	0	0
XTP	63	0	1
XTP	63	96	0
XTP	63	96	1
XTP	63	192	2
XTP	63	192	7
TAP	64	0	6
TAP	64	96	6
XTP	64	192	6
XTP	64	192	7
XTP	64	288	6
XTP	64	288	7
TAP	65	0	0
TAP	65	96	0
XTP	65	192	1
XTP	65	192	7
TAP	66	0	2
TAP	66	96	3
STR	66	192	3
SI_	66	192	3	96	192	0
STR	66	192	4
SI_	66	192	4	96	192	7
XTP	67	192	1
XTP	67	192	6
TAP	68	0	6
TAP	68	96	6
XTP	68	192	6
XTP	68	192	7
XTP	68	288	6
XTP	68	288	7
TAP	69	0	0
TAP	69	96	0
XTP	69	192	1
XTP	69	192	7
TAP	70	0	2
TAP	70	96	3
TAP	70	192	4
TAP	70	288	5
XTP	71	0	6
XTP	71	0	7
XTP	71	96	6
XTP	71	96	7
XTP	71	192	0
XTP	71	192	5
TAP	72	0	1
TAP	72	96	1
XTP	72	192	0
XTP	72	192	1
XTP	72	288	0
XTP	72	288	1
TAP	73	0	7
TAP	73	96	7
XTP	73	192	0
XTP	73	192	6
TAP	74	0	5
TAP	74	96	4
STR	74	192	3
SCL	74	192	3	96	192	0
STR	74	192	4
SCR	74	192	4	96	192	7
XTP	75	192	1
XTP	75	192	6
STR	76	0	6
SI_	76	0	6	96	192	4
STR	76	0	7
SI_	76	0	7	96	192	3
STR	77	0	0
SI_	77	0	0	96	192	4
STR	77	0	1
SI_	77	0	1	96	192	3
STR	78	0	0
SI_	78	0	0	96	192	3
STR	78	0	7
SI_	78	0	7	96	192	4
XTP	79	0	2
XTP	79	0	5
XTP	79	96	1
XTP	79	96	6
BRK	79	192	0
BRK	79	192	7
STR	80	0	0
SI_	80	0	0	96	192	4
STR	80	0	1
SI_	80	0	1	96	192	3
STR	81	0	6
SI_	81	0	6	96	192	4
STR	81	0	7
SI_	81	0	7	96	192	3
XHO	82	0	0	192
XHO	82	0	7	192
XHO	83	0	1	192
XHO	83	0	6	192
TAP	84	0	0
TAP	84	96	0
TAP	84	192	1
TAP	84	288	1
TAP	85	0	2
TAP	85	96	3
TAP	85	192	3
TAP	85	192	4
TAP	85	288	2
TAP	85	288	5
XTP	86	0	1
XTP	86	0	6
XTP	86	96	1
XTP	86	96	6
XTP	86	288	1
XTP	87	0	1
TAP	87	96	2
TAP	87	192	3
TAP	87	288	4
TAP	88	0	5
TAP	88	96	5
XTP	88	192	4
XTP	88	192	5
XTP	89	0	6
XTP	89	96	6
TAP	89	192	5
TAP	89	288	4
TAP	90	0	3
TAP	90	96	2
XTP	90	192	2
XTP	90	192	3
XHO	91	0	2	192
XHO	91	0	4	192
XHO	92	0	3	192
XHO	92	0	5	192
TTP	93	0	5	B	0	L1
TTP	93	192	4	B	0	L1
TTP	94	0	4	E	0	L1
TTP	94	192	3	B	0	L1
TTP	94	192	4	B	0	L1
TTP	95	0	2	B	0	L1
TTP	95	0	5	B	0	L1
TTP	95	192	1	B	0	L1
TTP	95	192	6	B	0	L1
THO	96	0	0	1152	C	1	L1

T_REC_TAP	128
T_REC_BRK	8
T_REC_XTP	86
T_REC_HLD	18
T_REC_XHO	12
T_REC_STR	14
T_REC_BST	0
T_REC_XST	0
T_REC_TTP	28
T_REC_THO	2
T_REC_SLD	14
T_REC_ALL	310
T_NUM_TAP	256
T_NUM_BRK	8
T_NUM_HLD	32
T_NUM_SLD	14
T_NUM_ALL	310
T_JUDGE_TAP	264
T_JUDGE_HLD	208
T_JUDGE_SLD	14
T_JUDGE_ALL	486
TTM_EACHPAIRS	71
TTM_SCR_TAP	128000
TTM_SCR_BRK	20800
TTM_SCR_HLD	32000
TTM_SCR_SLD	21000
TTM_SCR_ALL	201800
TTM_SCR_S	195000
TTM_SCR_SS	201000
TTM_RAT_ACV	10039

