VERSION	0.00.00	1.03.00
FES_MODE	0
BPM_DEF	170.000	170.000	170.000	170.000
MET_DEF	4	4
RESOLUTION	384
CLK_DEF	384
COMPATIBLE_CODE	MA2

BPM	0	0	170.000
MET	0	0	4	4

TAP	10	0	0
TAP	11	0	0
TAP	12	0	1
TAP	13	0	1
XTP	14	0	2
XTP	15	0	2
TAP	16	0	3
TAP	17	0	3
TAP	17	0	4
HLD	18	0	3	384
HLD	18	0	4	384
HLD	20	0	4	384
TAP	22	0	5
TAP	22	192	5
TAP	23	0	5
TAP	24	0	6
TAP	24	192	6
TAP	25	0	7
TAP	25	192	7
HLD	26	0	7	384
TAP	28	0	0
TAP	28	192	0
TAP	29	0	0
TAP	30	0	1
TAP	30	192	1
TAP	31	0	1
TAP	32	0	2
TAP	32	192	2
TAP	33	0	3
TAP	33	192	3
HLD	34	0	3	384
HLD	34	0	4	384
TTP	36	0	5	B	0	L1
TTP	37	0	6	B	0	L1
TTP	38	0	7	B	0	L1
TTP	39	0	0	B	0	L1
TTP	40	0	1	B	0	L1
TTP	41	0	2	B	0	L1
HLD	42	0	3	384
HLD	42	0	4	384
TTP	44	0	2	B	0	L1
TTP	45	0	1	B	0	L1
TTP	46	0	0	B	0	L1
TTP	47	0	7	B	0	L1
TTP	48	0	6	B	0	L1
TTP	49	0	5	B	0	L1
HLD	50	0	3	384
HLD	50	0	4	384
TTP	52	0	3	B	0	L1
TTP	52	0	4	B	0	L1
TTP	53	0	2	B	0	L1
TTP	53	0	5	B	0	L1
TTP	54	0	1	B	0	L1
TTP	54	0	6	B	0	L1
TTP	55	0	0	B	0	L1
TTP	55	0	7	B	0	L1
THO	56	0	0	384	C	0	L1
TTP	59	0	3	B	0	L1
TTP	59	0	4	B	0	L1
TTP	60	0	2	B	0	L1
TTP	60	0	5	B	0	L1
TTP	61	0	0	C	1	L1
TAP	62	0	0
TAP	62	192	0
BRK	63	0	0
TAP	64	0	1
TAP	64	192	1
TAP	65	0	2
TAP	65	96	2
TAP	65	192	2
TAP	66	0	3
TAP	66	0	4
TAP	66	192	3
TAP	66	192	4
BRK	67	0	3
BRK	67	0	4
TAP	68	0	5
TAP	68	96	5
TAP	68	192	5
TAP	69	0	6
TAP	69	96	6
TAP	69	192	6
TAP	70	0	7
TAP	70	192	7
XHO	71	0	0	192
TAP	72	0	1
TAP	72	192	1
TAP	73	0	2
TAP	73	96	2
TAP	73	192	2
TAP	74	0	3
TAP	74	0	4
TAP	74	192	3
TAP	74	192	4
BRK	75	0	3
BRK	75	0	4
STR	76	0	5
SI_	76	0	5	96	288	2
STR	78	0	1
SI_	78	0	1	96	288	6
TAP	80	0	7
TAP	80	192	7
TAP	81	0	6
TAP	81	96	6
TAP	81	192	6
XHO	82	0	4	192
XHO	82	0	5	192
XHO	83	0	2	192
XHO	83	0	3	192
XTP	84	0	4
XTP	84	192	3
TAP	85	0	4
TAP	85	96	4
TAP	85	192	3
TAP	85	288	3
XTP	86	0	2
XTP	86	0	5
XTP	87	0	1
TAP	87	192	1
TAP	88	0	2
TAP	88	192	2
TAP	89	0	3
TAP	89	192	3
HLD	90	0	4	192
XTP	91	0	3
XTP	91	0	5
XTP	92	0	2
XTP	92	0	4
TAP	93	0	5
TAP	93	192	5
TAP	94	0	6
TAP	94	192	6
TAP	95	0	0
TAP	95	0	7
XHO	96	0	0	1176
XHO	96	0	7	1176

T_REC_TAP	72
T_REC_BRK	5
T_REC_XTP	11
T_REC_HLD	11
T_REC_XHO	7
T_REC_STR	2
T_REC_BST	0
T_REC_XST	0
T_REC_TTP	25
T_REC_THO	1
T_REC_SLD	2
T_REC_ALL	136
T_NUM_TAP	110
T_NUM_BRK	5
T_NUM_HLD	19
T_NUM_SLD	2
T_NUM_ALL	136
T_JUDGE_TAP	115
T_JUDGE_HLD	162
T_JUDGE_SLD	2
T_JUDGE_ALL	279
TTM_EACHPAIRS	18
TTM_SCR_TAP	55000
TTM_SCR_BRK	13000
TTM_SCR_HLD	19000
TTM_SCR_SLD	3000
TTM_SCR_ALL	90000
TTM_SCR_S	86850
TTM_SCR_SS	89500
TTM_RAT_ACV	10055

