VERSION	0.00.00	1.03.00
FES_MODE	0
BPM_DEF	150.000	150.000	150.000	150.000
MET_DEF	4	4
RESOLUTION	384
CLK_DEF	384
COMPATIBLE_CODE	MA2

BPM	0	0	150.000
MET	0	0	4	4

BRK	2	0	0
TAP	5	288	4
TAP	5	312	3
TAP	5	336	5
TAP	6	0	4
TAP	6	0	5
TAP	6	96	4
TAP	6	96	6
TAP	6	192	4
TAP	6	192	7
TAP	6	288	0
TAP	6	288	4
TAP	7	0	2
TAP	7	0	3
TAP	7	96	1
TAP	7	96	3
TAP	7	192	0
TAP	7	192	3
TAP	7	288	3
TAP	7	288	7
TAP	8	0	4
TAP	8	0	5
TAP	8	96	4
TAP	8	96	6
TAP	8	192	4
TAP	8	192	7
TAP	8	288	0
TAP	8	288	4
TAP	9	0	2
TAP	9	0	3
TAP	9	96	1
TAP	9	96	3
STR	9	192	0
SI_	9	192	0	96	48	4
TAP	9	192	3
XTP	9	288	0
STR	10	0	5
SI_	10	0	5	96	48	7
STR	10	96	2
SI_	10	96	2	96	48	0
STR	10	192	5
SI_	10	192	5	96	48	7
STR	10	288	2
SI_	10	288	2	96	48	0
STR	11	0	5
SI_	11	0	5	96	48	7
STR	11	96	2
SI_	11	96	2	96	48	0
STR	11	192	5
SI_	11	192	5	96	48	7
STR	11	288	2
SI_	11	288	2	96	48	0
STR	12	0	5
SI_	12	0	5	96	48	7
STR	12	96	2
SI_	12	96	2	96	48	0
TAP	12	192	5
TAP	12	288	1
TAP	12	288	6
TAP	13	0	3
TAP	13	0	4
TAP	13	48	2
TAP	13	48	5
TAP	13	96	2
TAP	13	96	5
TAP	13	144	4
TAP	13	168	3
TAP	13	192	5
TAP	13	240	3
TAP	13	240	5
TAP	13	288	1
TAP	13	288	6
TAP	14	0	0
TAP	14	0	7
TAP	14	48	5
TAP	14	72	4
TAP	14	96	6
TAP	14	144	6
TAP	14	192	4
TAP	14	240	4
TAP	14	288	3
TAP	14	336	3
TAP	15	0	1
TAP	15	48	1
TAP	15	96	1
STR	15	96	3
SI_	15	96	3	96	48	6
STR	15	192	2
SI_	15	192	2	96	48	7
TAP	15	288	6
TAP	16	0	5
TAP	16	48	2
TAP	16	72	3
TAP	16	96	1
TAP	16	144	1
TAP	16	192	3
TAP	16	240	3
TAP	16	288	4
TAP	16	336	5
TAP	17	0	5
TAP	17	48	4
TAP	17	96	5
TAP	17	144	6
TAP	17	192	7
XTP	17	240	0
XTP	17	240	1
XTP	17	288	0
XTP	17	288	1
TAP	18	0	0
TAP	18	0	7
TAP	18	48	5
TAP	18	72	4
TAP	18	96	6
HLD	18	144	6	96
TAP	18	240	7
TAP	18	288	0
HLD	18	336	1	96
TAP	19	48	0
STR	19	96	0
SI_	19	96	0	96	48	5
STR	19	192	1
SI_	19	192	1	96	48	4
TAP	19	288	5
TAP	20	0	5
TAP	20	48	2
TAP	20	72	3
TAP	20	96	1
HLD	20	144	1	96
TAP	20	240	0
HLD	20	288	0	96
HLD	21	0	7	96
TAP	21	96	5
TAP	21	192	2
XTP	21	240	0
XTP	21	240	1
XTP	21	288	0
XTP	21	288	1
TAP	22	0	0
TAP	22	0	7
TAP	22	48	5
TAP	22	72	4
TAP	22	96	6
HLD	22	144	6	96
TAP	22	240	4
TAP	22	288	3
HLD	22	336	2	96
TAP	23	48	4
STR	23	96	4
SI_	23	96	4	96	48	7
STR	23	192	0
SI_	23	192	0	96	48	4
TAP	23	288	7
TAP	24	0	5
TAP	24	48	2
TAP	24	72	3
TAP	24	96	1
HLD	24	144	1	96
TAP	24	240	3
TAP	24	288	4
HLD	24	336	5	96
TAP	25	48	4
TAP	25	96	5
TAP	25	144	6
TAP	25	192	7
XTP	25	240	0
XTP	25	240	1
XTP	25	288	0
XTP	25	288	1
TAP	26	0	0
TAP	26	0	7
TAP	26	48	5
TAP	26	72	4
TAP	26	96	6
HLD	26	144	6	96
TAP	26	240	7
TAP	26	288	0
HLD	26	336	1	96
TAP	27	48	7
STR	27	96	7
SI_	27	96	7	96	48	4
STR	27	192	3
SI_	27	192	3	96	48	7
TAP	27	288	4
TAP	28	0	5
TAP	28	48	2
TAP	28	72	3
TAP	28	96	1
HLD	28	144	1	96
TAP	28	240	0
HLD	28	288	0	96
HLD	29	0	7	96
HLD	29	96	5	96
TAP	29	192	2
TAP	29	288	3
TAP	29	288	4
HLD	30	0	2	192
HLD	30	0	7	192
TAP	30	240	6
TAP	30	288	6
TAP	30	288	7
HLD	31	0	0	192
HLD	31	0	5	192
TAP	31	240	1
TAP	31	288	0
TAP	31	288	1
TAP	32	0	2
TAP	32	0	7
TAP	32	48	3
TAP	32	96	4
TAP	32	144	0
TAP	32	144	5
TAP	32	192	4
TAP	32	240	3
TAP	32	288	2
TAP	32	288	7
XTP	32	336	2
XTP	32	336	7
TAP	33	48	6
TAP	33	48	7
TAP	33	96	0
TAP	33	96	5
TAP	33	144	1
TAP	33	144	4
TAP	33	192	2
TAP	33	192	3
BRK	33	288	7
STR	34	0	5
SI_	34	0	5	96	48	1
STR	34	96	3
SI_	34	96	3	96	48	0
TAP	34	192	7
TAP	34	288	0
STR	34	336	0
SCL	34	336	0	96	48	5
TAP	35	48	4
STR	35	96	4
SI_	35	96	4	96	48	7
STR	35	192	3
SI_	35	192	3	96	48	0
TAP	35	288	7
TAP	36	0	1
TAP	36	0	6
TAP	36	48	0
TAP	36	72	7
STR	36	96	1
SCR	36	96	1	96	48	4
TAP	36	144	1
STR	36	192	5
SCR	36	192	5	96	48	0
TAP	36	240	5
TAP	36	288	3
TAP	36	336	2
STR	37	0	1
SUR	37	0	1	96	48	5
STR	37	0	5
SCR	37	0	5	96	48	0
BRK	37	192	7
TTP	37	240	0	E	0	M1
TTP	37	240	0	B	0	M1
TTP	37	240	1	E	0	M1
TTP	37	288	0	B	0	M1
TTP	37	288	0	E	0	M1
TTP	37	288	1	E	0	M1
STR	38	0	2
SI_	38	0	2	96	48	6
STR	38	96	4
SI_	38	96	4	96	48	7
TAP	38	192	0
TAP	38	288	7
STR	38	336	7
SCR	38	336	7	96	48	2
TAP	39	48	3
STR	39	96	3
SI_	39	96	3	96	48	0
STR	39	192	4
SI_	39	192	4	96	48	7
TAP	39	288	0
TAP	40	0	1
TAP	40	0	6
TAP	40	48	7
TAP	40	72	0
STR	40	96	6
SCL	40	96	6	96	48	3
TAP	40	144	6
STR	40	192	2
SCL	40	192	2	96	48	7
TAP	40	240	2
TAP	40	288	4
TAP	40	336	5
STR	41	0	2
SLL	41	0	2	96	96	3
STR	41	0	6
SLL	41	0	6	96	96	7
BRK	41	288	0
BRK	41	288	7
STR	42	0	2
SI_	42	0	2	96	48	7
STR	42	96	5
SI_	42	96	5	96	48	0
STR	42	192	2
SI_	42	192	2	96	48	7
STR	42	288	5
SI_	42	288	5	96	48	0
TAP	43	0	2
TAP	43	48	2
TAP	43	96	5
TAP	43	144	5
TAP	43	192	0
TTP	43	240	0	E	0	M1
TTP	43	240	7	B	0	M1
TTP	43	240	7	E	0	M1
TTP	43	288	0	E	0	M1
TTP	43	288	7	B	0	M1
TTP	43	288	7	E	0	M1
STR	44	0	5
SI_	44	0	5	96	48	0
STR	44	96	2
SI_	44	96	2	96	48	7
STR	44	192	5
SI_	44	192	5	96	48	0
STR	44	288	2
SI_	44	288	2	96	48	7
TAP	45	0	5
TAP	45	48	5
TAP	45	96	2
TAP	45	144	2
TAP	45	192	7
TTP	45	240	0	B	0	M1
TTP	45	240	0	E	0	M1
TTP	45	240	1	E	0	M1
TTP	45	288	0	E	0	M1
TTP	45	288	0	B	0	M1
TTP	45	288	1	E	0	M1
STR	46	0	2
SI_	46	0	2	96	48	7
STR	46	96	5
SI_	46	96	5	96	48	0
STR	46	192	2
SI_	46	192	2	96	48	7
STR	46	288	5
SI_	46	288	5	96	48	0
TAP	47	0	2
TAP	47	48	2
TAP	47	96	5
TAP	47	144	5
TAP	47	192	0
TTP	47	240	0	E	0	M1
TTP	47	240	7	B	0	M1
TTP	47	240	7	E	0	M1
TTP	47	288	0	E	0	M1
TTP	47	288	7	E	0	M1
TTP	47	288	7	B	0	M1
STR	48	0	5
SI_	48	0	5	96	48	0
STR	48	96	2
SI_	48	96	2	96	48	7
STR	48	192	5
SI_	48	192	5	96	48	0
STR	48	288	2
SI_	48	288	2	96	48	7
STR	49	0	6
SI_	49	0	6	96	48	3
STR	49	96	1
SI_	49	96	1	96	48	5
STR	49	192	7
SI_	49	192	7	96	48	3
HLD	49	288	0	1440
THO	50	0	0	1152	C	0	M1
TAP	53	264	4
TAP	53	288	3
TAP	53	336	2
TAP	53	336	4
TAP	54	0	2
TAP	54	0	4
TAP	54	72	3
TAP	54	96	2
TAP	54	144	2
TAP	54	144	4
TAP	54	192	2
TAP	54	192	4
TAP	54	264	3
TAP	54	288	2
TAP	54	336	2
TAP	54	336	4
TAP	55	0	2
TAP	55	0	4
TAP	55	72	3
TAP	55	96	2
TAP	55	144	2
TAP	55	144	4
TAP	55	192	2
TAP	55	192	4
TAP	55	264	3
TAP	55	288	2
TAP	55	336	2
TAP	55	336	4
TAP	56	0	2
TAP	56	0	4
TAP	56	72	3
TAP	56	96	2
TAP	56	144	2
TAP	56	144	4
TAP	56	192	2
TAP	56	192	4
TAP	56	264	3
TAP	56	288	2
BRK	56	336	1
BRK	56	336	5
TAP	57	48	0
TAP	57	48	7
TAP	57	96	1
TAP	57	96	6
TAP	57	144	2
TAP	57	144	5
TAP	57	192	3
TAP	57	192	4
BRK	57	288	0
STR	58	0	2
SI_	58	0	2	96	48	6
TAP	58	48	2
STR	58	96	4
SI_	58	96	4	96	48	7
TAP	58	144	4
TAP	58	192	0
TAP	58	240	0
TAP	58	288	7
STR	58	336	7
SCR	58	336	7	96	48	2
TAP	59	48	3
STR	59	96	3
SI_	59	96	3	96	48	0
STR	59	192	4
SI_	59	192	4	96	48	7
TAP	59	288	0
TAP	60	0	1
TAP	60	0	6
TAP	60	48	7
TAP	60	72	0
STR	60	96	6
SCL	60	96	6	96	48	3
TAP	60	144	6
STR	60	192	2
SCL	60	192	2	96	48	7
TAP	60	240	2
TAP	60	288	4
TAP	60	336	5
STR	61	0	2
SCR	61	0	2	96	48	5
STR	61	0	6
SCR	61	0	6	96	48	1
BRK	61	192	7
TTP	61	240	0	B	0	M1
TTP	61	240	0	E	0	M1
TTP	61	240	1	B	0	M1
TTP	61	240	2	E	0	M1
TTP	61	288	0	E	0	M1
TTP	61	288	0	B	0	M1
TTP	61	288	1	B	0	M1
TTP	61	288	2	E	0	M1
STR	62	0	5
SI_	62	0	5	96	48	1
TAP	62	48	5
STR	62	96	3
SI_	62	96	3	96	48	0
TAP	62	144	3
TAP	62	192	7
TAP	62	288	0
STR	62	336	0
SCL	62	336	0	96	48	5
TAP	63	48	4
STR	63	96	4
SI_	63	96	4	96	48	7
STR	63	192	3
SI_	63	192	3	96	48	0
TAP	63	288	7
TAP	64	0	1
TAP	64	0	6
TAP	64	48	0
TAP	64	72	7
STR	64	96	1
SCR	64	96	1	96	48	4
TAP	64	144	1
STR	64	192	5
SCR	64	192	5	96	48	0
TAP	64	240	5
TAP	64	288	3
TAP	64	336	2
STR	65	0	1
SXL	65	0	1	96	96	0
STR	65	0	5
SXL	65	0	5	96	96	4
TAP	65	288	3
TAP	65	288	5
TAP	65	336	2
STR	66	0	1
SI_	66	0	1	96	48	5
XTP	66	96	1
STR	66	96	7
SCL	66	96	7	96	96	1
TAP	66	192	1
XTP	66	192	7
TAP	66	288	0
HLD	66	336	0	96
TAP	67	48	7
STR	67	96	6
SI_	67	96	6	96	48	2
STR	67	144	1
SI_	67	144	1	96	48	5
XTP	67	192	6
XTP	67	240	1
BRK	67	288	7
TTP	67	336	0	C	1	M1
TAP	68	48	0
TAP	68	72	7
STR	68	96	1
SCR	68	96	1	96	48	4
TAP	68	144	1
STR	68	192	0
SCL	68	192	0	96	48	5
TAP	68	240	0
STR	68	288	1
SCR	68	288	1	96	48	4
TAP	68	336	1
STR	69	0	0
SCL	69	0	0	96	48	5
TAP	69	48	0
HLD	69	96	1	96
TAP	69	192	7
TTP	69	240	1	B	0	M1
TTP	69	240	1	E	0	M1
TTP	69	240	6	B	0	M1
TTP	69	240	7	E	0	M1
TTP	69	288	1	E	0	M1
TTP	69	288	1	B	0	M1
TTP	69	288	6	B	0	M1
TTP	69	288	7	E	0	M1
STR	70	0	7
SI_	70	0	7	96	48	4
STR	70	96	0
SCR	70	96	0	96	96	6
XTP	70	96	7
XTP	70	192	0
TAP	70	192	6
TAP	70	288	7
TAP	70	336	7
TAP	71	48	2
STR	71	96	4
SI_	71	96	4	96	48	7
STR	71	144	3
SI_	71	144	3	96	48	0
TAP	71	288	7
TAP	71	336	6
TAP	72	0	3
TAP	72	0	5
TAP	72	48	2
TAP	72	72	3
TAP	72	96	1
TAP	72	144	5
TAP	72	168	4
TAP	72	192	6
TAP	72	240	1
TAP	72	264	0
TAP	72	288	2
TAP	72	336	6
TAP	72	360	7
HLD	73	0	5	288
BRK	73	288	0
STR	74	0	2
SI_	74	0	2	96	48	7
TAP	74	0	7
STR	74	96	5
SI_	74	96	5	96	48	0
STR	74	192	2
SI_	74	192	2	96	48	7
STR	74	288	5
SI_	74	288	5	96	48	0
TAP	75	0	2
TAP	75	48	2
TAP	75	96	5
TAP	75	144	5
TAP	75	192	0
TTP	75	240	0	E	0	M1
TTP	75	240	0	B	0	M1
TTP	75	240	6	B	0	M1
TTP	75	240	7	E	0	M1
TTP	75	240	7	B	0	M1
TTP	75	288	0	B	0	M1
TTP	75	288	0	E	0	M1
TTP	75	288	6	B	0	M1
TTP	75	288	7	B	0	M1
TTP	75	288	7	E	0	M1
STR	76	0	5
SI_	76	0	5	96	48	0
STR	76	96	2
SI_	76	96	2	96	48	7
STR	76	192	5
SI_	76	192	5	96	48	0
STR	76	288	2
SI_	76	288	2	96	48	7
TAP	77	0	5
TAP	77	48	5
TAP	77	96	2
TAP	77	144	2
TAP	77	192	7
TTP	77	240	0	B	0	M1
TTP	77	240	0	E	0	M1
TTP	77	240	1	B	0	M1
TTP	77	240	1	E	0	M1
TTP	77	240	7	B	0	M1
TTP	77	288	0	B	0	M1
TTP	77	288	0	E	0	M1
TTP	77	288	1	E	0	M1
TTP	77	288	1	B	0	M1
TTP	77	288	7	B	0	M1
STR	78	0	2
SI_	78	0	2	96	48	7
STR	78	96	5
SI_	78	96	5	96	48	0
STR	78	192	2
SI_	78	192	2	96	48	7
STR	78	288	5
SI_	78	288	5	96	48	0
TAP	79	0	2
TAP	79	48	2
TAP	79	96	5
TAP	79	144	5
TAP	79	192	0
TTP	79	240	0	E	0	M1
TTP	79	240	0	B	0	M1
TTP	79	240	6	B	0	M1
TTP	79	240	7	B	0	M1
TTP	79	240	7	E	0	M1
TTP	79	288	0	E	0	M1
TTP	79	288	0	B	0	M1
TTP	79	288	6	B	0	M1
TTP	79	288	7	B	0	M1
TTP	79	288	7	E	0	M1
STR	80	0	5
SI_	80	0	5	96	48	0
STR	80	96	2
SI_	80	96	2	96	48	7
STR	80	192	5
SI_	80	192	5	96	48	0
TAP	80	288	2
TAP	80	336	2
TTP	81	0	3	B	0	M1
TTP	81	0	3	E	0	M1
TTP	81	0	4	B	0	M1
TTP	81	0	5	E	0	M1
TTP	81	96	0	B	0	M1
TTP	81	96	1	E	0	M1
TTP	81	96	7	B	0	M1
TTP	81	96	7	E	0	M1
TTP	81	192	2	E	0	M1
TTP	81	192	6	E	0	M1
TTP	81	288	1	B	0	M1
TTP	81	288	2	B	0	M1
TTP	81	288	5	B	0	M1
TTP	81	288	6	B	0	M1
TTP	82	0	0	C	1	M1
TTP	82	0	3	B	0	M1
TTP	82	0	3	E	0	M1
TTP	82	0	7	E	0	M1
TTP	82	0	7	B	0	M1
TAP	82	288	0
TAP	82	288	7
TAP	82	336	3
TAP	82	336	4
STR	83	0	2
SI_	83	0	2	96	48	5
STR	83	96	1
SI_	83	96	1	96	48	6
STR	83	192	2
SI_	83	192	2	96	48	5
STR	83	288	1
SI_	83	288	1	96	48	6
TAP	84	0	2
TAP	84	96	3
TAP	84	96	4
TAP	84	144	3
TAP	84	144	4
TAP	84	192	2
TAP	84	192	5
TTP	84	240	0	B	0	M1
TTP	84	240	1	E	0	M1
TTP	84	240	7	E	0	M1
TTP	84	240	7	B	0	M1
TTP	84	288	0	B	0	M1
TTP	84	288	1	E	0	M1
TTP	84	288	7	B	0	M1
TTP	84	288	7	E	0	M1
STR	85	0	2
SI_	85	0	2	96	48	5
TAP	85	0	5
STR	85	96	1
SI_	85	96	1	96	48	6
STR	85	192	2
SI_	85	192	2	96	48	5
TAP	85	288	7
TAP	86	0	0
TAP	86	0	5
TAP	86	48	2
TAP	86	48	7
TAP	86	96	0
TAP	86	96	5
TAP	86	144	2
TAP	86	144	7
HLD	86	192	0	48
HLD	86	192	5	48
HLD	86	288	2	48
HLD	86	288	7	48
BRK	87	0	0
BRK	87	0	5

T_REC_TAP	337
T_REC_BRK	13
T_REC_XTP	21
T_REC_HLD	27
T_REC_XHO	0
T_REC_STR	108
T_REC_BST	0
T_REC_XST	0
T_REC_TTP	98
T_REC_THO	1
T_REC_SLD	108
T_REC_ALL	713
T_NUM_TAP	564
T_NUM_BRK	13
T_NUM_HLD	28
T_NUM_SLD	108
T_NUM_ALL	713
T_JUDGE_TAP	577
T_JUDGE_HLD	114
T_JUDGE_SLD	108
T_JUDGE_ALL	799
TTM_EACHPAIRS	91
TTM_SCR_TAP	282000
TTM_SCR_BRK	33800
TTM_SCR_HLD	28000
TTM_SCR_SLD	162000
TTM_SCR_ALL	505800
TTM_SCR_S	489400
TTM_SCR_SS	504500
TTM_RAT_ACV	10025

