VERSION	0.00.00	1.03.00
FES_MODE	0
BPM_DEF	150.000	150.000	150.000	150.000
MET_DEF	4	4
RESOLUTION	384
CLK_DEF	384
COMPATIBLE_CODE	MA2

BPM	0	0	150.000
MET	0	0	4	4

BRK	2	0	0
HLD	2	0	5	384
HLD	3	0	3	768
HLD	4	0	4	576
TAP	5	288	2
TAP	5	288	5
TAP	6	0	3
TAP	6	0	4
TAP	6	96	3
TAP	6	192	3
TAP	6	192	4
TAP	6	288	3
TAP	7	0	2
TAP	7	0	5
TAP	7	96	2
TAP	7	192	2
TAP	7	192	5
TAP	7	288	2
TAP	8	0	1
TAP	8	0	6
TAP	8	96	1
TAP	8	192	1
TAP	8	192	6
TAP	8	288	1
HLD	9	0	0	96
HLD	9	0	7	96
TAP	9	192	2
TAP	9	192	3
BRK	9	288	7
TAP	10	0	2
TAP	10	96	1
TAP	10	96	3
TAP	10	192	5
TAP	10	288	4
TAP	10	288	6
HLD	11	0	2	96
HLD	11	96	3	96
HLD	11	192	4	96
TAP	11	288	5
TAP	12	0	4
TAP	12	0	6
TAP	12	96	5
TAP	12	192	1
TAP	12	192	3
TAP	12	288	2
HLD	13	0	3	96
HLD	13	0	4	96
TAP	13	192	1
TAP	13	240	0
TAP	13	240	1
TAP	13	288	0
TAP	13	288	1
TAP	14	0	2
TAP	14	96	3
TAP	14	192	5
TAP	14	288	4
TAP	14	288	5
TAP	15	0	2
TAP	15	96	2
TAP	15	96	3
TAP	15	192	4
TAP	15	288	3
TAP	15	288	4
TAP	16	0	5
TAP	16	96	4
HLD	16	192	2	96
TAP	16	288	3
TAP	17	0	1
TAP	17	96	1
TAP	17	96	3
HLD	17	192	1	96
TAP	17	240	0
TAP	17	288	0
TAP	18	0	2
TAP	18	96	3
TAP	18	192	5
TAP	18	288	4
TAP	18	288	5
TAP	19	0	6
HLD	19	96	6	192
TAP	19	96	7
XTP	19	192	0
XTP	19	288	0
TAP	20	0	6
TAP	20	96	4
TAP	20	96	6
TAP	20	192	2
STR	20	288	1
SUR	20	288	1	96	240	4
TAP	20	288	3
TAP	21	288	7
TAP	22	0	6
TAP	22	96	4
TAP	22	192	2
TAP	22	288	1
TAP	22	288	3
TAP	23	0	1
TAP	23	96	3
TAP	23	192	4
TAP	23	288	3
TAP	23	288	5
TAP	24	0	6
TAP	24	96	4
TAP	24	192	3
TAP	24	288	2
TAP	24	288	4
HLD	25	0	1	96
STR	25	96	3
SI_	25	96	3	96	96	0
SUR	25	96	3	96	96	0
TAP	26	0	6
TAP	26	96	4
TAP	26	192	2
TAP	26	288	1
TAP	26	288	3
TAP	27	0	1
TAP	27	96	3
TAP	27	192	5
TAP	27	288	4
TAP	27	288	6
STR	28	0	1
SI_	28	0	1	96	48	4
STR	28	192	6
SI_	28	192	6	96	48	3
HLD	29	0	2	96
HLD	29	96	3	96
HLD	29	192	4	96
BRK	29	288	5
TTP	30	0	0	C	0	M1
TTP	30	0	3	B	0	M1
TTP	30	0	7	B	0	M1
TAP	30	240	6
TAP	30	240	7
TAP	30	288	6
TAP	30	288	7
TTP	31	0	0	B	0	M1
TTP	31	0	0	C	0	M1
TTP	31	0	4	B	0	M1
TAP	31	240	0
TAP	31	240	1
TAP	31	288	0
TAP	31	288	1
TTP	32	0	5	B	0	M1
TTP	32	96	7	B	0	M1
TTP	32	96	7	E	0	M1
TTP	32	192	2	B	0	M1
TTP	32	288	0	B	0	M1
TTP	32	288	1	E	0	M1
TTP	33	0	0	C	1	M1
XTP	33	192	1
XTP	33	192	6
STR	34	0	4
SI_	34	0	4	96	48	0
HLD	34	0	5	96
STR	34	192	4
SI_	34	192	4	96	48	0
HLD	34	192	5	96
HLD	35	0	2	96
STR	35	0	3
SI_	35	0	3	96	48	7
HLD	35	192	2	96
STR	35	192	3
SI_	35	192	3	96	48	7
HLD	36	0	1	96
TAP	36	96	3
HLD	36	192	6	96
TAP	36	288	7
TAP	37	0	4
TAP	37	0	5
TAP	37	96	2
TAP	37	96	3
TAP	37	192	1
TAP	37	240	0
TAP	37	240	1
TAP	37	288	0
TAP	37	288	1
HLD	38	0	2	96
TAP	38	0	7
TAP	38	96	3
TAP	38	192	0
HLD	38	192	5	96
TAP	38	288	4
TAP	39	0	3
TAP	39	0	4
TAP	39	96	1
TAP	39	96	3
TAP	39	192	3
TAP	39	192	4
TAP	39	288	4
TAP	39	288	6
TAP	40	0	0
STR	40	0	7
SI_	40	0	7	96	48	3
TAP	40	192	0
STR	40	192	1
SI_	40	192	1	96	48	4
STR	41	0	5
SUL	41	0	5	96	144	2
BRK	41	288	0
TAP	42	0	2
TAP	42	0	3
TAP	42	96	0
TAP	42	96	6
TAP	42	192	2
TAP	42	192	3
TAP	42	288	0
TAP	42	288	6
TAP	43	0	4
HLD	43	0	5	96
TAP	43	96	4
TAP	43	192	6
TAP	43	240	6
TAP	43	240	7
TAP	43	288	6
TAP	43	288	7
TAP	44	0	4
TAP	44	0	5
TAP	44	96	1
TAP	44	96	7
TAP	44	192	4
TAP	44	192	5
TAP	44	288	1
TAP	44	288	7
TAP	45	0	2
TAP	45	48	2
TAP	45	96	3
TAP	45	192	1
TAP	45	240	0
TAP	45	240	1
TAP	45	288	0
TAP	45	288	1
TAP	46	0	2
TAP	46	0	3
TAP	46	96	0
TAP	46	96	6
TAP	46	192	4
TAP	46	192	5
TAP	46	288	1
TAP	46	288	7
TAP	47	0	4
HLD	47	0	6	96
TAP	47	96	4
TAP	47	192	6
TAP	47	240	6
TAP	47	240	7
TAP	47	288	6
TAP	47	288	7
TAP	48	0	4
TAP	48	0	5
TAP	48	96	0
TAP	48	96	1
TAP	48	192	2
TAP	48	192	3
TAP	48	288	6
TAP	48	288	7
XTP	49	0	0
XTP	49	0	5
XTP	49	96	1
XTP	49	96	4
XTP	49	192	2
XTP	49	192	3
XTP	49	288	3
XTP	49	288	4
XHO	50	0	0	1440
HLD	50	0	5	1440
TTP	54	0	0	E	0	M1
TTP	54	96	7	E	0	M1
TTP	54	192	6	E	0	M1
TTP	54	288	5	E	0	M1
TTP	55	0	4	E	0	M1
TTP	55	96	3	E	0	M1
TTP	55	192	2	E	0	M1
TTP	55	288	1	E	0	M1
TTP	56	0	0	E	0	M1
TTP	56	96	0	C	0	M1
TTP	56	192	4	E	0	M1
TAP	56	288	2
TAP	56	288	5
XTP	56	336	2
XTP	56	336	5
XTP	57	48	3
XTP	57	48	4
XTP	57	96	3
XTP	57	96	4
XTP	57	192	1
XTP	57	192	6
BST	58	0	2
SI_	58	0	2	96	48	7
BST	58	0	3
SI_	58	0	3	96	48	7
STR	58	192	2
SI_	58	192	2	96	48	7
STR	58	192	3
SI_	58	192	3	96	48	7
STR	59	0	4
SI_	59	0	4	96	48	0
STR	59	0	5
SI_	59	0	5	96	48	0
STR	59	192	4
SI_	59	192	4	96	48	0
STR	59	192	5
SI_	59	192	5	96	48	0
HLD	60	0	1	96
TAP	60	96	3
HLD	60	192	6	96
TAP	60	288	7
TAP	61	0	4
TAP	61	0	5
TAP	61	96	2
TAP	61	96	3
TAP	61	192	1
TAP	61	240	0
TAP	61	240	1
TAP	61	288	0
TAP	61	288	1
HLD	62	0	2	96
TAP	62	0	7
TAP	62	96	3
TAP	62	192	4
HLD	62	192	5	96
TAP	62	288	0
TAP	63	0	1
TAP	63	0	3
TAP	63	96	6
TAP	63	96	7
TAP	63	192	5
TAP	63	240	4
TAP	63	288	3
TAP	63	288	5
STR	64	0	2
SI_	64	0	2	96	48	7
TAP	64	0	3
TAP	64	192	3
STR	64	192	4
SI_	64	192	4	96	48	0
HLD	65	0	1	96
TAP	65	96	0
XTP	65	192	2
XTP	65	192	7
BST	66	0	3
SI_	66	0	3	96	48	0
BST	66	0	5
SI_	66	0	5	96	48	0
XST	66	192	2
SI_	66	192	2	96	48	7
XST	66	192	4
SI_	66	192	4	96	48	7
TAP	67	0	4
TAP	67	0	6
TAP	67	96	1
TAP	67	96	3
XTP	67	192	0
XTP	67	192	7
XTP	67	240	0
XTP	67	240	7
XTP	67	288	0
XTP	67	288	7
BRK	67	336	1
BRK	67	336	6
TAP	68	48	7
STR	68	96	7
SI_	68	96	7	96	48	3
TAP	68	192	0
TAP	68	288	1
TAP	68	288	4
TAP	69	0	6
TAP	69	0	7
TAP	69	96	4
TAP	69	96	5
TAP	69	192	2
TAP	69	240	0
TAP	69	240	1
TAP	69	288	0
TAP	69	288	1
STR	70	0	4
SI_	70	0	4	96	48	0
STR	70	0	5
SCR	70	0	5	96	48	0
STR	70	192	4
SI_	70	192	4	96	48	0
STR	70	192	5
SCR	70	192	5	96	48	0
STR	71	0	2
SCL	71	0	2	96	48	7
STR	71	0	3
SI_	71	0	3	96	48	7
STR	71	192	2
SCL	71	192	2	96	48	7
STR	71	192	3
SI_	71	192	3	96	48	7
TAP	72	0	4
TAP	72	0	5
TAP	72	96	0
TAP	72	96	7
TAP	72	192	2
TAP	72	192	3
TAP	72	288	0
TAP	72	288	7
XHO	73	0	3	96
XHO	73	0	4	192
BRK	73	288	0
XTP	73	288	4
TAP	74	0	2
TAP	74	0	3
TAP	74	96	0
TAP	74	96	6
STR	74	192	2
SI_	74	192	2	96	48	0
STR	74	192	3
SI_	74	192	3	96	48	6
TAP	75	0	7
TAP	75	96	4
TAP	75	96	5
TAP	75	192	5
TAP	75	240	6
TAP	75	240	7
TAP	75	288	6
TAP	75	288	7
TAP	76	0	4
TAP	76	0	5
TAP	76	96	1
TAP	76	96	7
STR	76	192	4
SI_	76	192	4	96	48	1
STR	76	192	5
SI_	76	192	5	96	48	7
TAP	77	0	5
TAP	77	48	5
TAP	77	96	4
TAP	77	96	6
TAP	77	192	2
TAP	77	240	0
TAP	77	240	1
TAP	77	288	0
TAP	77	288	1
BST	78	0	2
SI_	78	0	2	96	48	0
BST	78	0	3
SI_	78	0	3	96	48	6
XST	78	192	4
SI_	78	192	4	96	48	1
XST	78	192	5
SI_	78	192	5	96	48	7
TAP	79	0	0
TAP	79	96	2
TAP	79	96	3
TAP	79	192	5
TAP	79	240	6
TAP	79	240	7
TAP	79	288	6
TAP	79	288	7
XST	80	0	2
SI_	80	0	2	96	48	0
XST	80	0	3
SI_	80	0	3	96	48	6
XST	80	192	4
SI_	80	192	4	96	48	1
XST	80	192	5
SI_	80	192	5	96	48	7
HLD	81	0	0	96
HLD	81	96	1	96
HLD	81	192	2	96
STR	81	288	3
SI_	81	288	3	96	192	7
XTP	82	288	3
XTP	82	288	4
BRK	83	0	0
XTP	83	0	5
TAP	83	96	2
TAP	83	96	7
TAP	83	192	0
TAP	83	192	5
TAP	83	288	2
TAP	83	288	7
TAP	84	0	1
TAP	84	0	4
TAP	84	96	3
TAP	84	96	6
TAP	84	192	1
TAP	84	192	4
TAP	84	288	3
TAP	84	288	6
TAP	85	0	0
TAP	85	0	5
TAP	85	96	2
TAP	85	96	7
TAP	85	192	0
TAP	85	192	5
TAP	85	288	2
TAP	85	288	7
TAP	86	0	4
TAP	86	48	4
TAP	86	96	3
TAP	86	144	3
TAP	86	192	3
TAP	86	192	4
TAP	86	288	2
TAP	86	288	6
BRK	87	0	0
BRK	87	0	4

T_REC_TAP	300
T_REC_BRK	10
T_REC_XTP	32
T_REC_HLD	36
T_REC_XHO	3
T_REC_STR	33
T_REC_BST	6
T_REC_XST	8
T_REC_TTP	24
T_REC_THO	0
T_REC_SLD	48
T_REC_ALL	500
T_NUM_TAP	397
T_NUM_BRK	16
T_NUM_HLD	39
T_NUM_SLD	48
T_NUM_ALL	500
T_JUDGE_TAP	413
T_JUDGE_HLD	168
T_JUDGE_SLD	48
T_JUDGE_ALL	629
TTM_EACHPAIRS	159
TTM_SCR_TAP	198500
TTM_SCR_BRK	41600
TTM_SCR_HLD	39000
TTM_SCR_SLD	72000
TTM_SCR_ALL	351100
TTM_SCR_S	339050
TTM_SCR_SS	349500
TTM_RAT_ACV	10045

