VERSION	0.00.00	1.03.00
FES_MODE	0
BPM_DEF	150.000	150.000	150.000	150.000
MET_DEF	4	4
RESOLUTION	384
CLK_DEF	384
COMPATIBLE_CODE	MA2

BPM	0	0	150.000
MET	0	0	4	4

XHO	2	0	5	384
HLD	3	0	4	384
HLD	4	0	3	384
TAP	5	0	2
TAP	5	192	2
TAP	6	0	3
TAP	6	96	3
TAP	6	192	3
TAP	7	0	4
TAP	7	96	4
TAP	7	192	4
TAP	8	0	5
TAP	8	96	5
TAP	8	192	6
TAP	8	288	6
TAP	9	0	7
XTP	9	96	0
XTP	9	96	7
XTP	9	192	1
XTP	9	192	6
TAP	10	0	1
TAP	10	96	1
TAP	10	192	0
TAP	10	192	1
TAP	11	0	6
TAP	11	96	6
XTP	11	192	6
XTP	11	192	7
TAP	12	0	1
TAP	12	96	1
TAP	12	192	0
TAP	12	288	0
XTP	13	0	0
XTP	13	0	7
XTP	13	96	0
XTP	13	96	7
BRK	13	192	1
BRK	13	192	6
HLD	14	0	5	192
TAP	14	192	4
TAP	14	288	4
HLD	15	0	3	192
TAP	15	192	4
TAP	15	288	4
HLD	16	0	5	192
TAP	16	192	4
TAP	16	288	3
TAP	17	0	2
TAP	17	96	2
XTP	17	192	2
XTP	17	192	3
HLD	18	0	2	192
TAP	18	192	3
TAP	18	288	3
HLD	19	0	4	192
TAP	19	192	3
TAP	19	288	3
HLD	20	0	2	192
TAP	20	192	3
TAP	20	288	4
TAP	21	0	5
TAP	21	96	5
XTP	21	192	4
XTP	21	192	6
TAP	22	0	5
TAP	22	96	5
TAP	22	192	4
TAP	22	192	5
TAP	23	0	2
TAP	23	96	2
TAP	23	192	2
TAP	23	192	3
TAP	24	0	5
TAP	24	96	5
TAP	24	192	4
TAP	24	288	4
TAP	25	0	3
TAP	25	96	2
XTP	25	192	1
XTP	25	192	3
TAP	26	0	2
TAP	26	96	2
TAP	26	192	2
TAP	26	192	3
TAP	27	0	5
TAP	27	96	5
TAP	27	192	4
TAP	27	192	5
TAP	28	0	2
TAP	28	96	2
TAP	28	192	1
TAP	28	288	1
TAP	29	0	0
TAP	29	96	0
TAP	29	96	7
XTP	29	192	1
XTP	29	192	6
TTP	30	0	6	B	0	L1
TTP	30	192	0	C	0	L1
TTP	31	0	2	B	0	L1
TTP	31	192	4	E	0	L1
TTP	32	0	3	B	0	L1
TTP	32	0	4	B	0	L1
TTP	32	192	2	B	0	L1
TTP	32	192	5	B	0	L1
TTP	33	0	0	C	1	L1
TAP	34	0	1
TAP	34	96	1
TAP	34	192	0
TAP	34	192	1
TAP	34	288	0
TAP	34	288	1
TAP	35	0	7
TAP	35	96	6
XTP	35	192	0
XTP	35	192	5
TAP	36	0	5
TAP	36	96	4
TAP	36	192	3
TAP	36	288	2
XTP	37	0	3
XTP	37	0	4
XTP	37	96	2
XTP	37	96	5
BRK	37	192	1
BRK	37	192	6
TAP	38	0	6
TAP	38	96	6
TAP	38	192	6
TAP	38	192	7
TAP	38	288	6
TAP	38	288	7
TAP	39	0	0
TAP	39	96	1
XTP	39	192	2
XTP	39	192	7
TAP	40	0	2
TAP	40	96	3
TAP	40	192	4
TAP	40	288	5
XTP	41	0	3
XTP	41	0	4
XTP	41	96	2
XTP	41	96	5
BRK	41	192	1
BRK	41	192	6
XHO	42	0	6	96
XHO	42	0	7	96
XHO	42	192	6	96
XHO	42	192	7	96
TAP	43	0	5
TAP	43	96	4
TAP	43	192	3
TAP	43	288	2
XHO	44	0	0	96
XHO	44	0	1	96
XHO	44	192	0	96
XHO	44	192	1	96
TAP	45	0	2
TAP	45	96	3
TAP	45	192	4
TAP	45	288	5
XHO	46	0	6	96
XHO	46	0	7	96
XHO	46	192	6	96
XHO	46	192	7	96
TAP	47	0	5
TAP	47	96	4
TAP	47	192	3
TAP	47	288	2
XHO	48	0	0	96
XHO	48	0	1	96
XHO	48	192	0	96
XHO	48	192	1	96
TAP	49	0	2
TAP	49	96	3
XTP	49	192	3
XTP	49	192	4
XTP	49	288	2
XTP	49	288	5
XHO	50	0	1	1152
XHO	50	0	6	768
XTP	53	192	1
XTP	53	192	6
STR	54	0	5
SCL	54	0	5	96	192	2
STR	55	0	1
SCL	55	0	1	96	192	6
TAP	56	0	5
TAP	56	96	5
STR	56	192	3
SI_	56	192	3	96	192	0
STR	56	192	4
SI_	56	192	4	96	192	7
XTP	57	192	1
XTP	57	192	6
TAP	58	0	1
TAP	58	96	0
TAP	58	96	1
TAP	58	192	1
TAP	58	288	0
TAP	58	288	1
TAP	59	0	6
TAP	59	96	6
TAP	59	96	7
XTP	59	192	0
XTP	59	192	5
TAP	60	0	5
TAP	60	96	4
TAP	60	192	3
TAP	60	288	2
XTP	61	0	0
XTP	61	0	1
XTP	61	96	2
XTP	61	96	7
BRK	61	192	3
BRK	61	192	6
TAP	62	0	6
TAP	62	96	6
TAP	62	96	7
TAP	62	192	6
TAP	62	288	6
TAP	62	288	7
TAP	63	0	1
TAP	63	96	0
TAP	63	96	1
XTP	63	192	2
XTP	63	192	7
TAP	64	0	2
TAP	64	96	3
TAP	64	192	4
TAP	64	288	5
XTP	65	0	6
XTP	65	0	7
XTP	65	96	0
XTP	65	96	5
BRK	65	192	1
BRK	65	192	4
TAP	66	0	1
TAP	66	96	0
TAP	66	96	1
TAP	66	192	6
TAP	66	288	6
TAP	66	288	7
TAP	67	0	5
TAP	67	96	4
TAP	67	96	5
BRK	67	192	3
BRK	67	192	6
TAP	68	0	2
TAP	68	96	2
TAP	68	96	3
TAP	68	192	5
TAP	68	288	4
TAP	68	288	5
TAP	69	0	3
TAP	69	0	6
TAP	69	96	2
TAP	69	96	7
BRK	69	192	2
BRK	69	192	7
TAP	70	0	6
TAP	70	96	6
TAP	70	96	7
TAP	70	192	1
TAP	70	288	0
TAP	70	288	1
TAP	71	0	2
TAP	71	96	2
TAP	71	96	3
BRK	71	192	1
BRK	71	192	4
TAP	72	0	5
TAP	72	96	4
TAP	72	96	5
TAP	72	192	2
TAP	72	288	2
TAP	72	288	3
TAP	73	0	1
XTP	73	96	0
XTP	73	96	7
BRK	73	192	1
BRK	73	192	6
XHO	74	0	6	96
XHO	74	0	7	96
XHO	74	192	6	96
XHO	74	192	7	96
TAP	75	0	5
TAP	75	96	4
TAP	75	192	3
TAP	75	288	2
XHO	76	0	0	96
XHO	76	0	1	96
XHO	76	192	0	96
XHO	76	192	1	96
TAP	77	0	2
TAP	77	96	3
TAP	77	192	4
TAP	77	288	5
XHO	78	0	6	96
XHO	78	0	7	96
XHO	78	192	6	96
XHO	78	192	7	96
TAP	79	0	5
TAP	79	96	4
TAP	79	192	3
TAP	79	288	2
XHO	80	0	0	96
XHO	80	0	1	96
XHO	80	192	0	96
XHO	80	192	1	96
TAP	81	0	2
TAP	81	96	3
XTP	81	192	4
XTP	81	192	5
XTP	81	288	3
XTP	81	288	6
BRK	82	0	2
BRK	82	0	7
TTP	83	0	1	B	0	L1
TTP	83	192	0	C	0	L1
TTP	84	0	5	B	0	L1
TTP	84	192	6	B	0	L1
TTP	85	0	0	C	0	L1
TTP	85	192	2	B	0	L1
TTP	86	0	3	B	0	L1
TTP	86	0	4	B	0	L1
TTP	86	192	2	E	0	L1
TTP	86	192	6	E	0	L1
THO	87	0	0	864	C	0	L1

T_REC_TAP	183
T_REC_BRK	20
T_REC_XTP	56
T_REC_HLD	8
T_REC_XHO	35
T_REC_STR	4
T_REC_BST	0
T_REC_XST	0
T_REC_TTP	19
T_REC_THO	1
T_REC_SLD	4
T_REC_ALL	330
T_NUM_TAP	262
T_NUM_BRK	20
T_NUM_HLD	44
T_NUM_SLD	4
T_NUM_ALL	330
T_JUDGE_TAP	282
T_JUDGE_HLD	170
T_JUDGE_SLD	4
T_JUDGE_ALL	456
TTM_EACHPAIRS	84
TTM_SCR_TAP	131000
TTM_SCR_BRK	52000
TTM_SCR_HLD	44000
TTM_SCR_SLD	6000
TTM_SCR_ALL	233000
TTM_SCR_S	224100
TTM_SCR_SS	231000
TTM_RAT_ACV	10086

