VERSION	0.00.00	1.03.00
FES_MODE	0
BPM_DEF	150.000	150.000	150.000	150.000
MET_DEF	4	4
RESOLUTION	384
CLK_DEF	384
COMPATIBLE_CODE	MA2

BPM	0	0	150.000
MET	0	0	4	4
CLK	0	0
CLK	0	96
CLK	0	192
CLK	0	288

XHO	2	0	0	1344
XTP	6	0	0
XTP	6	192	0
XTP	7	0	0
XTP	7	192	0
XTP	8	0	0
XTP	8	192	0
BRK	9	0	0
XHO	10	0	0	192
HLD	11	0	7	192
XHO	12	0	0	192
HLD	13	0	7	192
TAP	14	0	0
TAP	14	192	0
TAP	15	0	1
TAP	15	192	1
TAP	16	0	2
TAP	16	192	2
TAP	17	0	3
TAP	17	96	3
TAP	17	192	3
TAP	18	0	4
TAP	18	192	4
TAP	19	0	5
TAP	19	192	5
TAP	20	0	6
TAP	20	192	6
TAP	21	0	7
XTP	21	192	0
XTP	21	192	7
TAP	22	0	6
TAP	22	192	6
TAP	23	0	5
TAP	23	192	5
TAP	24	0	4
TAP	24	192	4
TAP	25	0	3
TAP	25	96	4
TAP	25	192	3
TAP	26	0	2
TAP	26	192	2
TAP	27	0	1
TAP	27	192	1
TAP	28	0	0
TAP	28	192	0
TAP	29	0	7
TAP	29	96	0
TAP	29	192	7
TTP	30	0	0	B	0	L1
TTP	30	0	7	B	0	L1
TTP	31	0	1	B	0	L1
TTP	31	0	6	B	0	L1
THO	32	0	0	384	C	1	L1
TAP	34	0	0
TAP	34	96	0
TAP	34	192	0
TAP	35	0	1
TAP	35	96	1
TAP	35	192	1
TAP	36	0	2
TAP	36	96	2
TAP	36	192	2
TAP	37	0	3
TAP	37	96	4
XTP	37	192	3
TAP	38	0	4
TAP	38	96	4
TAP	38	192	4
TAP	39	0	5
TAP	39	96	5
TAP	39	192	5
TAP	40	0	6
TAP	40	96	6
TAP	40	192	6
TAP	41	0	7
TAP	41	96	7
TAP	41	192	0
BRK	41	288	0
XHO	42	0	7	192
TAP	43	0	7
TAP	43	96	7
TAP	43	192	6
XHO	44	0	0	192
TAP	45	0	0
TAP	45	96	0
TAP	45	192	1
XHO	46	0	7	192
TAP	47	0	7
TAP	47	96	7
TAP	47	192	0
TAP	47	192	7
XHO	48	0	0	192
TAP	49	0	0
TAP	49	96	0
TAP	49	192	7
TAP	49	288	7
XHO	50	0	0	1344
TTP	54	0	0	B	0	L1
TTP	54	0	7	B	0	L1
TTP	55	0	1	B	0	L1
TTP	55	0	6	B	0	L1
THO	56	0	0	336	C	1	L1
TAP	58	0	7
TAP	58	96	7
TAP	58	192	7
TAP	59	0	6
TAP	59	96	6
TAP	59	192	6
TAP	60	0	5
TAP	60	96	5
TAP	60	192	4
TAP	60	288	4
TAP	61	0	3
TAP	61	96	3
XTP	61	192	3
XTP	61	192	4
TAP	62	0	3
TAP	62	96	3
TAP	62	192	3
TAP	63	0	2
TAP	63	96	2
TAP	63	192	2
TAP	64	0	1
TAP	64	96	1
TAP	64	192	0
TAP	64	288	0
TAP	65	0	7
TAP	65	96	7
XTP	65	192	0
XTP	65	192	7
TAP	66	0	0
TAP	66	96	0
TAP	66	192	0
TAP	67	0	1
TAP	67	96	1
TAP	67	192	1
TAP	68	0	2
TAP	68	96	2
TAP	68	192	3
TAP	68	288	3
TAP	69	0	4
TAP	69	96	4
XTP	69	192	3
XTP	69	192	4
TAP	70	0	4
TAP	70	96	4
TAP	70	192	4
TAP	71	0	5
TAP	71	96	5
TAP	71	192	5
TAP	72	0	6
TAP	72	96	6
TAP	72	192	7
TAP	72	288	7
TAP	73	0	0
TAP	73	0	7
BRK	73	288	0
XHO	74	0	7	192
TAP	75	0	7
TAP	75	96	7
TAP	75	192	0
TAP	75	192	6
XHO	76	0	0	192
TAP	77	0	0
TAP	77	96	0
TAP	77	192	1
TAP	77	192	7
XHO	78	0	6	192
XHO	78	0	7	192
TAP	79	0	0
TAP	79	96	7
TAP	79	192	0
XHO	80	0	0	192
XHO	80	0	1	192
TAP	81	0	7
TAP	81	96	7
TAP	81	192	0
TAP	81	288	0
BRK	82	0	7
STR	83	0	0
SI_	83	0	0	96	288	4
STR	85	0	7
SI_	85	0	7	96	288	3
BRK	87	0	0

T_REC_TAP	134
T_REC_BRK	5
T_REC_XTP	15
T_REC_HLD	2
T_REC_XHO	14
T_REC_STR	2
T_REC_BST	0
T_REC_XST	0
T_REC_TTP	8
T_REC_THO	2
T_REC_SLD	2
T_REC_ALL	184
T_NUM_TAP	159
T_NUM_BRK	5
T_NUM_HLD	18
T_NUM_SLD	2
T_NUM_ALL	184
T_JUDGE_TAP	164
T_JUDGE_HLD	127
T_JUDGE_SLD	2
T_JUDGE_ALL	293
TTM_EACHPAIRS	10
TTM_SCR_TAP	79500
TTM_SCR_BRK	13000
TTM_SCR_HLD	18000
TTM_SCR_SLD	3000
TTM_SCR_ALL	113500
TTM_SCR_S	109650
TTM_SCR_SS	113000
TTM_RAT_ACV	10044

