VERSION	0.00.00	1.03.00
FES_MODE	0
BPM_DEF	128.000	128.000	128.000	128.000
MET_DEF	4	4
RESOLUTION	384
CLK_DEF	384
COMPATIBLE_CODE	MA2

BPM	0	0	128.000
MET	0	0	4	4
CLK	0	0
CLK	0	96
CLK	0	192
CLK	0	288

HLD	2	0	2	144
HLD	2	144	3	240
HLD	3	0	5	72
HLD	3	72	4	72
HLD	3	144	3	240
HLD	4	0	5	144
HLD	4	144	4	240
HLD	5	0	2	72
HLD	5	72	3	72
HLD	5	144	4	240
HLD	6	0	1	144
HLD	6	144	3	240
HLD	7	0	4	72
HLD	7	72	5	72
TAP	7	144	2
STR	7	240	4
SI_	7	240	4	96	48	6
TAP	7	336	2
STR	8	48	3
SI_	8	48	3	96	48	1
TAP	8	144	5
STR	8	240	4
SCR	8	240	4	96	336	3
TTP	8	336	0	C	0	M1
TAP	10	0	3
TAP	10	0	4
XTP	10	48	2
TAP	10	72	3
TAP	10	96	1
XTP	10	144	5
TAP	10	168	4
TAP	10	192	6
XTP	10	240	2
TAP	10	264	3
TAP	10	288	0
TAP	10	336	5
TAP	10	360	4
HLD	11	0	7	72
TAP	11	72	0
TAP	11	96	7
TAP	11	144	1
TAP	11	144	6
STR	11	192	2
SI_	11	192	2	96	48	7
TAP	11	216	2
BRK	11	288	3
TAP	12	0	1
TAP	12	0	5
TAP	12	48	2
TAP	12	72	3
TAP	12	96	1
TAP	12	144	5
TAP	12	168	4
TAP	12	192	6
TAP	12	240	2
TAP	12	264	3
TAP	12	288	0
TAP	12	336	2
TAP	12	336	6
HLD	13	0	0	72
TAP	13	72	7
TAP	13	96	0
TAP	13	144	1
TAP	13	144	6
STR	13	192	5
SI_	13	192	5	96	48	0
TAP	13	216	5
BRK	13	288	4
TAP	14	0	2
TAP	14	0	6
TAP	14	48	5
TAP	14	72	4
TAP	14	96	7
TAP	14	144	2
TAP	14	168	3
TAP	14	192	0
STR	14	240	6
SI_	14	240	6	96	48	3
TAP	14	288	6
TAP	14	336	7
XTP	14	360	7
STR	15	48	1
SI_	15	48	1	96	48	4
TAP	15	96	1
TAP	15	144	0
XTP	15	168	0
TAP	15	240	6
TAP	15	288	5
TAP	15	336	4
XHO	15	360	4	72
TAP	16	48	3
TAP	16	96	1
TAP	16	96	6
TAP	16	144	0
TAP	16	144	7
XTP	16	168	0
XTP	16	168	7
STR	16	240	1
SI_	16	240	1	96	48	5
TAP	16	288	1
TAP	16	336	0
XTP	16	360	0
STR	17	48	6
SI_	17	48	6	96	48	2
TAP	17	96	6
TAP	17	144	7
XTP	17	168	7
TAP	17	240	1
TAP	17	240	3
TAP	17	288	2
TAP	17	288	4
TAP	17	336	3
TAP	17	336	5
TAP	18	0	4
TAP	18	0	6
TAP	18	48	5
TAP	18	96	1
TAP	18	96	3
TAP	18	144	2
TAP	18	192	0
TAP	18	216	7
TAP	18	240	0
TAP	18	264	7
TAP	18	288	0
BRK	18	336	1
BRK	18	336	6
TAP	19	48	2
TAP	19	96	2
STR	19	144	3
SI_	19	144	3	96	48	5
TAP	19	192	1
STR	19	240	1
SI_	19	240	1	96	48	3
HLD	19	336	6	96
TAP	20	48	5
TAP	20	96	4
TAP	20	144	3
TAP	20	192	2
TAP	20	240	0
TAP	20	240	1
TAP	20	288	0
TAP	20	288	1
TAP	21	0	3
TAP	21	0	4
TAP	21	48	5
TAP	21	96	5
STR	21	144	4
SI_	21	144	4	96	48	2
TAP	21	192	6
STR	21	240	6
SI_	21	240	6	96	48	4
HLD	21	336	1	96
TAP	22	48	2
TAP	22	96	3
TAP	22	144	4
TAP	22	192	5
TAP	22	240	6
TAP	22	240	7
TAP	22	288	6
TAP	22	288	7
TAP	23	0	2
TAP	23	0	3
TAP	23	48	1
TAP	23	96	2
TAP	23	144	3
STR	23	192	4
SI_	23	192	4	96	48	2
TAP	23	240	5
TAP	23	288	6
TAP	24	0	4
TAP	24	0	5
TAP	24	48	6
TAP	24	96	5
TAP	24	144	4
STR	24	192	3
SI_	24	192	3	96	48	5
TAP	24	240	2
TAP	24	288	1
TAP	25	0	0
TAP	25	0	7
TAP	25	48	6
TAP	25	96	3
TAP	25	144	4
STR	25	192	1
SI_	25	192	1	96	48	6
STR	25	240	5
SI_	25	240	5	96	48	2
TAP	26	48	1
TAP	26	48	3
TAP	26	96	2
TAP	26	144	4
TAP	26	144	6
TAP	26	192	5
TAP	26	240	0
TAP	26	240	7
TAP	26	288	0
TAP	26	288	7
TAP	27	0	3
TAP	27	0	4
TAP	27	48	5
TAP	27	96	5
STR	27	144	4
SCL	27	144	4	96	48	1
TAP	27	144	6
TAP	27	192	7
STR	27	240	7
SCL	27	240	7	96	48	4
HLD	27	336	0	96
TAP	28	48	3
TAP	28	96	2
TAP	28	144	1
TAP	28	192	0
TAP	28	240	6
TAP	28	240	7
TAP	28	288	6
TAP	28	288	7
TAP	29	0	3
TAP	29	0	4
TAP	29	48	2
TAP	29	96	2
TAP	29	144	1
STR	29	144	3
SCR	29	144	3	96	48	6
TAP	29	192	0
STR	29	240	0
SCR	29	240	0	96	48	3
HLD	29	336	7	96
TAP	30	48	4
TAP	30	96	5
TAP	30	144	6
TAP	30	192	7
TAP	30	240	0
TAP	30	240	1
TAP	30	288	0
TAP	30	288	1
TAP	31	0	3
TAP	31	0	4
TAP	31	48	5
TAP	31	96	4
STR	31	144	3
SCR	31	144	3	96	96	1
TAP	31	192	2
TAP	31	240	2
TAP	32	0	3
TAP	32	0	4
TAP	32	48	2
TAP	32	96	3
STR	32	144	4
SCL	32	144	4	96	96	6
TAP	32	192	5
TAP	32	240	5
TAP	33	0	3
TAP	33	0	4
TAP	33	48	2
TAP	33	96	1
TAP	33	96	3
TAP	33	144	5
TAP	33	192	4
TAP	33	192	6
TAP	33	240	0
TAP	33	288	0
TAP	33	288	7
STR	33	336	6
SI_	33	336	6	96	48	3
STR	34	0	1
SI_	34	0	1	96	48	4
TAP	34	48	6
TAP	34	96	1
TAP	34	144	6
XTP	34	192	5
XTP	34	192	7
XTP	34	264	0
XTP	34	264	2
XTP	34	336	3
XTP	34	336	4
TAP	35	0	2
TAP	35	24	3
TAP	35	48	1
TAP	35	96	5
TAP	35	120	4
TAP	35	144	6
HLD	35	192	0	72
STR	35	192	1
SCR	35	192	1	96	48	4
TAP	35	336	5
TAP	36	0	5
TAP	36	24	4
TAP	36	48	6
TAP	36	96	2
TAP	36	120	3
TAP	36	144	1
STR	36	192	6
SCL	36	192	6	96	48	3
HLD	36	192	7	72
STR	36	336	2
SI_	36	336	2	96	48	7
TAP	37	0	2
BRK	37	48	6
TAP	37	96	5
TAP	37	144	4
XTP	37	192	3
XST	37	192	5
SI_	37	192	5	96	48	0
XTP	37	240	2
XTP	37	288	1
TAP	37	336	2
HLD	38	0	2	96
TAP	38	48	0
HLD	38	96	3	96
TAP	38	144	0
HLD	38	192	4	96
TAP	38	240	7
STR	38	288	5
SCR	38	288	5	96	96	2
TAP	38	336	7
XTP	39	0	7
STR	39	144	4
SI_	39	144	4	96	48	6
TAP	39	192	4
STR	39	240	0
SI_	39	240	0	96	48	2
TAP	39	288	0
STR	39	336	6
SI_	39	336	6	96	48	0
TAP	40	0	6
STR	40	48	2
SI_	40	48	2	96	48	4
TAP	40	96	2
TAP	40	144	0
TAP	40	240	3
TAP	40	240	7
TAP	40	288	2
TAP	40	288	6
TAP	40	336	1
TAP	40	336	5
HLD	41	0	0	96
HLD	41	0	4	96
TAP	41	144	0
TAP	41	144	4
STR	41	192	3
SCR	41	192	3	96	48	6
STR	41	192	7
SCR	41	192	7	96	48	2
TAP	42	0	3
TAP	42	48	3
TAP	42	48	4
TAP	42	96	5
TAP	42	144	4
TAP	42	144	6
TAP	42	192	1
TAP	42	240	0
TAP	42	240	2
TAP	42	288	6
TAP	42	336	5
TAP	42	336	7
TAP	43	0	2
TAP	43	48	1
HLD	43	48	3	72
HLD	43	120	4	72
TAP	43	192	6
TAP	43	216	7
TAP	43	240	6
TAP	43	264	7
TAP	43	312	1
TAP	43	336	0
XHO	44	0	2	72
TAP	44	72	3
XTP	44	96	2
TAP	44	144	4
TAP	44	144	5
XST	44	192	1
SI_	44	192	1	96	48	4
XST	44	192	6
SI_	44	192	6	96	48	3
TAP	44	240	0
TAP	44	240	7
TTP	44	288	0	C	1	M1
BRK	44	288	1
BRK	44	288	6
TAP	45	0	2
STR	45	0	5
SI_	45	0	5	96	48	0
STR	45	72	1
SI_	45	72	1	96	48	5
TAP	45	72	5
TAP	45	144	1
TAP	45	240	4
TAP	45	240	6
TAP	45	288	3
TAP	45	288	5
TAP	45	336	2
TAP	45	336	4
TAP	46	0	1
STR	46	0	3
SI_	46	0	3	96	48	6
STR	46	72	0
SI_	46	72	0	96	48	4
TAP	46	72	3
TAP	46	144	0
TAP	46	240	3
TAP	46	240	7
TAP	46	288	2
TAP	46	288	6
TAP	46	336	1
TAP	46	336	5
TAP	47	0	0
STR	47	0	4
SCR	47	0	4	96	48	7
STR	47	72	3
SCL	47	72	3	96	48	0
TAP	47	72	4
TAP	47	144	3
TAP	47	240	6
TAP	47	240	7
TAP	47	288	0
TAP	47	288	5
TAP	47	336	1
TAP	47	336	4
STR	48	0	2
SI_	48	0	2	96	48	7
TAP	48	0	3
TAP	48	72	2
STR	48	72	6
SI_	48	72	6	96	48	2
TAP	48	144	6
TAP	48	240	1
TAP	48	240	3
TAP	48	288	2
TAP	48	288	4
TAP	48	336	3
TAP	48	336	5
STR	49	0	4
SI_	49	0	4	96	48	1
TAP	49	0	6
TAP	49	72	4
STR	49	72	7
SI_	49	72	7	96	48	3
TAP	49	144	7
TAP	49	240	0
TAP	49	240	4
TAP	49	288	1
TAP	49	288	5
TAP	49	336	2
TAP	49	336	6
STR	50	0	3
SCL	50	0	3	96	48	0
TAP	50	0	7
TAP	50	72	3
STR	50	72	4
SCR	50	72	4	96	48	7
TAP	50	144	4
STR	50	240	0
SI_	50	240	0	96	48	5
STR	50	240	1
SI_	50	240	1	96	48	4
TAP	50	288	2
TAP	50	288	7
XTP	50	336	0
XTP	50	336	1
STR	51	48	6
SI_	51	48	6	96	48	3
STR	51	48	7
SI_	51	48	7	96	48	2
TAP	51	96	0
TAP	51	96	5
XTP	51	144	6
XTP	51	144	7
STR	51	240	0
SI_	51	240	0	96	48	5
STR	51	240	7
SI_	51	240	7	96	48	2
TAP	51	288	1
TAP	51	288	6
XTP	51	336	0
XTP	51	336	7
TAP	52	48	3
TAP	52	48	4
TAP	52	96	2
TAP	52	96	5
TAP	52	144	1
TAP	52	144	6
STR	52	192	0
SCR	52	192	0	96	48	3
STR	52	192	7
SCL	52	192	7	96	48	4
BRK	52	288	0
BRK	52	288	7
TTP	52	300	1	E	0	M1
TTP	52	300	7	E	0	M1
TTP	52	312	2	E	0	M1
TTP	52	312	6	E	0	M1
TTP	52	324	3	E	0	M1
TTP	52	324	5	E	0	M1
STR	53	0	1
SI_	53	0	1	96	48	5
TAP	53	0	7
TAP	53	72	1
STR	53	72	6
SCR	53	72	6	96	96	4
TAP	53	144	6
TAP	53	240	7
TAP	53	288	0
TAP	53	336	1
TAP	53	336	5
STR	54	0	2
SI_	54	0	2	96	48	6
TAP	54	0	6
TAP	54	72	2
STR	54	72	7
SCR	54	72	7	96	96	5
TAP	54	144	7
TAP	54	240	0
TAP	54	288	1
TAP	54	336	2
TAP	54	336	6
STR	55	0	3
SI_	55	0	3	96	48	7
TAP	55	0	7
TAP	55	72	3
STR	55	72	4
SCR	55	72	4	96	96	2
TAP	55	144	4
TAP	55	240	3
TAP	55	288	4
TAP	55	336	3
TAP	55	336	5
TAP	56	0	2
STR	56	0	6
SI_	56	0	6	96	48	2
STR	56	72	1
SCL	56	72	1	96	96	3
TAP	56	72	6
TAP	56	144	1
TAP	56	240	0
TAP	56	288	7
TAP	56	336	2
TAP	56	336	6
TAP	57	0	1
STR	57	0	5
SI_	57	0	5	96	48	1
STR	57	72	0
SCL	57	72	0	96	96	2
TAP	57	72	5
TAP	57	144	0
TAP	57	240	7
TAP	57	288	6
TAP	57	336	1
TAP	57	336	5
TAP	58	0	0
STR	58	0	4
SI_	58	0	4	96	48	0
STR	58	72	3
SCL	58	72	3	96	96	5
TAP	58	72	4
TAP	58	144	3
TAP	58	240	4
TAP	58	288	3
STR	58	336	2
SI_	58	336	2	96	48	7
XTP	58	336	4
TAP	59	48	3
TAP	59	96	4
XTP	59	144	3
STR	59	144	5
SI_	59	144	5	96	48	0
TAP	59	240	4
TAP	59	288	3
XTP	59	336	3
XTP	59	336	4
TAP	60	0	2
TAP	60	0	5
TAP	60	48	1
TAP	60	48	6
TAP	60	96	0
TAP	60	96	7
TAP	60	108	1
TAP	60	120	2
TAP	60	132	3
TAP	60	144	4
TAP	60	156	5
TAP	60	168	6
TAP	60	180	7
BRK	60	192	0
BRK	60	192	4
BRK	60	264	2
BRK	60	264	6
BRK	60	336	1
HLD	60	336	5	96
TAP	61	0	7
HLD	61	48	4	96
TAP	61	96	7
HLD	61	144	5	96
TAP	61	192	7
HLD	61	240	4	96
TAP	61	288	7
TAP	61	336	5
TAP	62	0	4
TAP	62	0	6
TAP	62	48	2
TAP	62	96	1
TAP	62	96	3
TAP	62	144	5
TAP	62	192	4
STR	62	192	6
SI_	62	192	6	96	48	3
TAP	62	264	6
TAP	62	264	7
HLD	62	336	2	96
TAP	63	0	0
HLD	63	48	3	96
TAP	63	96	0
HLD	63	144	2	96
TAP	63	192	0
HLD	63	240	3	96
TAP	63	288	0
TAP	63	336	2
TAP	64	0	1
TAP	64	0	3
TAP	64	48	5
TAP	64	96	4
TAP	64	96	6
TAP	64	144	2
STR	64	192	1
SI_	64	192	1	96	48	4
TAP	64	192	3
TAP	64	240	0
TAP	64	264	1
HLD	64	336	5	96
TAP	65	0	7
HLD	65	48	4	96
TAP	65	96	7
HLD	65	144	5	96
TAP	65	192	7
HLD	65	240	4	96
TAP	65	288	7
TAP	65	336	5
TAP	66	0	4
TAP	66	0	6
TAP	66	48	2
TAP	66	96	1
TAP	66	96	3
TAP	66	144	5
STR	66	192	4
SI_	66	192	4	96	48	1
STR	66	192	6
SI_	66	192	6	96	48	3
TAP	66	264	4
TAP	66	264	6
XTP	67	0	0
XTP	67	0	7
TAP	67	48	2
TAP	67	48	4
XTP	67	96	0
XTP	67	96	7
TAP	67	144	3
TAP	67	144	5
XTP	67	192	0
XTP	67	192	7
STR	67	240	2
SCL	67	240	2	96	96	5
TAP	67	240	4
XTP	67	288	0
XTP	67	288	7
TAP	67	336	4
HLD	68	48	3	72
TAP	68	120	4
TTP	68	192	0	C	1	M1
TTP	68	192	1	B	0	M1
TTP	68	192	2	E	0	M1
TTP	68	192	2	B	0	M1
TTP	68	192	5	B	0	M1
TTP	68	192	6	E	0	M1
TTP	68	192	6	B	0	M1

T_REC_TAP	408
T_REC_BRK	14
T_REC_XTP	38
T_REC_HLD	42
T_REC_XHO	2
T_REC_STR	74
T_REC_BST	0
T_REC_XST	3
T_REC_TTP	15
T_REC_THO	0
T_REC_SLD	77
T_REC_ALL	673
T_NUM_TAP	538
T_NUM_BRK	14
T_NUM_HLD	44
T_NUM_SLD	77
T_NUM_ALL	673
T_JUDGE_TAP	552
T_JUDGE_HLD	106
T_JUDGE_SLD	77
T_JUDGE_ALL	735
TTM_EACHPAIRS	147
TTM_SCR_TAP	269000
TTM_SCR_BRK	36400
TTM_SCR_HLD	44000
TTM_SCR_SLD	115500
TTM_SCR_ALL	464900
TTM_SCR_S	449600
TTM_SCR_SS	463500
TTM_RAT_ACV	10030

