VERSION	0.00.00	1.03.00
FES_MODE	0
BPM_DEF	128.000	128.000	128.000	128.000
MET_DEF	4	4
RESOLUTION	384
CLK_DEF	384
COMPATIBLE_CODE	MA2

BPM	0	0	128.000
MET	0	0	4	4

HLD	2	0	5	384
HLD	3	0	4	384
HLD	4	0	3	384
TAP	5	0	2
TAP	5	192	2
HLD	6	0	2	192
HLD	6	192	3	192
HLD	7	0	4	192
TAP	7	192	5
TAP	7	288	5
TAP	8	0	6
TAP	8	96	6
TAP	8	192	7
TAP	8	288	0
TAP	8	288	7
HLD	9	0	1	192
HLD	9	0	6	480
XTP	10	0	0
XTP	10	96	0
XTP	10	192	0
XTP	10	192	7
BRK	10	288	1
BRK	10	288	6
TAP	11	0	1
TAP	11	96	0
TAP	11	96	1
TAP	11	192	6
TAP	11	288	6
TAP	11	288	7
TAP	12	0	4
TAP	12	0	6
TAP	12	96	2
TAP	12	96	3
XTP	12	192	2
XTP	12	192	6
TAP	13	0	6
TAP	13	96	6
TAP	13	96	7
TAP	13	192	1
TAP	13	288	0
TAP	13	288	1
TAP	14	0	1
TAP	14	0	3
TAP	14	96	4
TAP	14	96	5
XTP	14	192	1
XTP	14	192	5
HLD	15	0	1	96
TAP	15	0	3
XTP	15	96	3
TAP	15	192	4
HLD	15	192	6	96
XTP	15	288	4
TAP	16	0	2
TAP	16	0	3
TAP	16	96	4
TAP	16	96	5
XTP	16	192	1
XTP	16	192	6
HLD	17	0	6	96
TAP	17	0	7
XTP	17	96	7
TAP	17	192	0
HLD	17	192	1	96
XTP	17	288	0
XTP	18	0	0
XTP	18	0	7
XTP	18	96	0
XTP	18	96	7
BRK	18	192	1
BRK	18	192	6
TTP	19	0	7	E	0	M1
TTP	19	96	6	E	0	M1
TTP	19	192	4	E	0	M1
TTP	19	192	5	E	0	M1
TTP	20	0	1	E	0	M1
TTP	20	96	2	E	0	M1
TTP	20	192	3	E	0	M1
TTP	20	192	4	E	0	M1
TTP	21	0	7	E	0	M1
TTP	21	96	0	E	0	M1
TTP	21	192	1	E	0	M1
TTP	21	288	2	E	0	M1
TTP	22	0	3	E	0	M1
TTP	22	96	4	E	0	M1
TTP	22	192	0	C	0	M1
TTP	22	192	2	B	0	M1
TTP	22	192	5	B	0	M1
TTP	23	0	1	E	0	M1
TTP	23	96	2	E	0	M1
TTP	23	192	4	E	0	M1
TTP	23	192	5	E	0	M1
TTP	24	0	7	E	0	M1
TTP	24	96	6	E	0	M1
TTP	24	192	3	E	0	M1
TTP	24	192	4	E	0	M1
TTP	25	0	2	E	0	M1
TTP	25	96	4	E	0	M1
TTP	25	192	6	E	0	M1
TTP	25	288	0	E	0	M1
TTP	26	0	2	E	0	M1
TTP	26	96	4	E	0	M1
TTP	26	192	0	C	1	M1
TTP	26	192	2	E	0	M1
TTP	26	192	6	E	0	M1
XST	27	0	7
SI_	27	0	7	96	48	3
TAP	27	192	2
TAP	27	288	2
STR	28	0	1
SI_	28	0	1	96	48	4
TAP	28	192	5
TAP	28	288	5
STR	29	0	6
SI_	29	0	6	96	48	3
STR	29	192	2
SI_	29	192	2	96	48	7
TAP	30	0	6
TAP	30	96	7
XTP	30	192	1
XTP	30	192	6
STR	31	0	0
SI_	31	0	0	96	48	4
TAP	31	192	5
XTP	31	288	4
XTP	31	288	5
STR	32	0	6
SI_	32	0	6	96	48	3
TAP	32	192	2
XTP	32	288	2
XTP	32	288	3
STR	33	0	1
SI_	33	0	1	96	48	4
STR	33	192	5
SI_	33	192	5	96	48	0
TAP	34	0	1
XTP	34	96	0
XTP	34	96	7
BRK	34	192	1
BRK	34	192	6
TAP	35	0	3
TAP	35	0	5
TAP	35	48	5
TAP	35	96	5
XTP	35	192	4
XTP	35	192	6
TAP	35	288	3
TAP	36	0	2
TAP	36	0	4
TAP	36	48	2
TAP	36	96	2
XTP	36	192	1
XTP	36	192	3
TAP	36	288	4
TAP	37	0	4
TAP	37	0	6
TAP	37	48	6
TAP	37	96	6
XTP	37	192	2
XTP	37	192	3
XTP	37	288	2
XTP	37	288	3
HLD	38	0	2	96
HLD	38	96	3	96
HLD	38	192	4	96
XTP	38	288	5
XTP	39	0	4
XTP	39	0	6
HLD	39	192	6	96
TAP	39	288	4
HLD	40	0	4	96
TAP	40	96	3
HLD	40	192	3	96
TAP	40	288	1
TAP	41	0	1
TAP	41	96	0
TAP	41	96	1
TAP	41	192	6
TAP	41	288	6
TAP	41	288	7
TAP	42	0	5
TAP	42	96	4
TAP	42	192	3
TAP	42	288	2
STR	42	288	3
SCL	42	288	3	96	288	4
TTP	44	0	0	C	1	M1
TTP	44	0	2	B	0	M1
TTP	44	0	5	B	0	M1
XTP	44	240	0
XTP	44	240	7
XTP	44	288	0
XTP	44	288	7
XHO	45	0	1	72
XHO	45	72	2	72
XST	45	144	3
SI_	45	144	3	96	48	0
XTP	45	288	7
XHO	46	0	6	72
XHO	46	72	5	72
XST	46	144	4
SI_	46	144	4	96	48	7
XTP	46	288	0
HLD	47	0	2	72
HLD	47	72	1	72
XTP	47	144	0
XTP	47	240	6
XTP	47	288	6
XTP	47	288	7
HLD	48	0	5	72
HLD	48	72	6	72
XTP	48	144	7
XTP	48	240	1
XTP	48	288	0
XTP	48	288	1
HLD	49	0	1	72
HLD	49	72	2	72
STR	49	144	3
SCL	49	144	3	96	48	0
XTP	49	288	7
HLD	50	0	6	72
HLD	50	72	5	72
STR	50	144	4
SCR	50	144	4	96	48	7
XTP	50	288	0
HLD	51	0	1	192
TAP	51	96	7
HLD	51	192	6	96
TAP	51	288	0
TAP	52	0	0
XTP	52	96	0
XTP	52	96	7
BRK	52	192	1
BRK	52	192	6
XHO	53	0	5	72
XHO	53	72	6	72
XST	53	144	7
SI_	53	144	7	96	48	4
XTP	53	288	0
XHO	54	0	2	72
XHO	54	72	1	72
XST	54	144	0
SI_	54	144	0	96	48	3
XTP	54	288	7
HLD	55	0	6	72
HLD	55	72	5	72
XTP	55	144	4
XTP	55	240	1
XTP	55	288	0
XTP	55	288	1
HLD	56	0	1	72
HLD	56	72	2	72
XTP	56	144	3
XTP	56	240	6
XTP	56	288	6
XTP	56	288	7
HLD	57	0	5	72
HLD	57	72	6	72
STR	57	144	7
SCL	57	144	7	96	48	4
XTP	57	288	0
HLD	58	0	2	72
HLD	58	72	1	72
STR	58	144	0
SCR	58	144	0	96	48	3
XTP	58	288	7
HLD	59	0	6	192
TAP	59	96	0
HLD	59	192	1	96
TAP	59	288	7
TAP	60	0	7
XTP	60	96	0
XTP	60	96	7
BRK	60	192	1
BRK	60	192	6
XST	61	0	6
SI_	61	0	6	96	48	4
XST	61	0	7
SI_	61	0	7	96	48	3
XST	61	192	0
SI_	61	192	0	96	48	4
XST	61	192	1
SI_	61	192	1	96	48	3
HLD	62	0	6	96
HLD	62	96	4	96
HLD	62	192	3	96
TAP	62	288	1
XST	63	0	0
SI_	63	0	0	96	48	4
XST	63	0	1
SI_	63	0	1	96	48	3
XST	63	192	6
SI_	63	192	6	96	48	4
XST	63	192	7
SI_	63	192	7	96	48	3
HLD	64	0	1	96
HLD	64	96	3	96
HLD	64	192	4	96
TAP	64	288	6
XST	65	0	6
SI_	65	0	6	96	48	4
XST	65	0	7
SI_	65	0	7	96	48	3
XST	65	192	0
SI_	65	192	0	96	48	4
XST	65	192	1
SI_	65	192	1	96	48	3
XHO	66	0	5	96
HLD	66	96	7	96
HLD	66	192	0	96
HLD	66	288	2	96
STR	67	0	7
SI_	67	0	7	96	48	3
STR	67	96	1
SI_	67	96	1	96	48	4
STR	67	192	6
SI_	67	192	6	96	48	2
STR	67	288	0
SCR	67	288	0	96	120	5
TTP	68	192	0	C	1	M1
TTP	68	192	2	B	0	M1
TTP	68	192	6	B	0	M1

T_REC_TAP	81
T_REC_BRK	10
T_REC_XTP	69
T_REC_HLD	47
T_REC_XHO	9
T_REC_STR	16
T_REC_BST	0
T_REC_XST	17
T_REC_TTP	40
T_REC_THO	0
T_REC_SLD	33
T_REC_ALL	322
T_NUM_TAP	223
T_NUM_BRK	10
T_NUM_HLD	56
T_NUM_SLD	33
T_NUM_ALL	322
T_JUDGE_TAP	233
T_JUDGE_HLD	150
T_JUDGE_SLD	33
T_JUDGE_ALL	416
TTM_EACHPAIRS	56
TTM_SCR_TAP	111500
TTM_SCR_BRK	26000
TTM_SCR_HLD	56000
TTM_SCR_SLD	49500
TTM_SCR_ALL	243000
TTM_SCR_S	234750
TTM_SCR_SS	242000
TTM_RAT_ACV	10041

