VERSION	0.00.00	1.03.00
FES_MODE	0
BPM_DEF	128.000	128.000	128.000	128.000
MET_DEF	4	4
RESOLUTION	384
CLK_DEF	384
COMPATIBLE_CODE	MA2

BPM	0	0	128.000
MET	0	0	4	4

HLD	2	0	5	384
HLD	3	0	4	384
HLD	4	0	3	384
XTP	5	0	2
XTP	5	192	2
HLD	6	0	2	192
HLD	6	192	3	192
HLD	7	0	4	192
XTP	7	192	5
HLD	8	0	6	192
HLD	8	192	7	192
HLD	9	0	0	192
XTP	9	192	1
XTP	10	0	7
XTP	10	96	0
XTP	10	96	7
BRK	10	192	1
BRK	10	192	6
TAP	11	0	1
TAP	11	96	1
TAP	11	192	0
TAP	11	192	1
TAP	11	288	0
TAP	11	288	1
TAP	12	0	7
TAP	12	96	7
XTP	12	192	0
XTP	12	192	6
TAP	13	0	6
TAP	13	96	6
TAP	13	192	6
TAP	13	192	7
TAP	13	288	6
TAP	13	288	7
TAP	14	0	0
TAP	14	96	0
XTP	14	192	1
XTP	14	192	7
TAP	15	0	2
TAP	15	96	2
TAP	15	192	3
TAP	15	288	4
XTP	16	0	4
XTP	16	0	5
XTP	16	96	4
XTP	16	96	5
XTP	16	192	3
XTP	16	192	6
TAP	17	0	5
TAP	17	96	4
TAP	17	192	3
TAP	17	288	2
TAP	18	0	1
XTP	18	96	0
XTP	18	96	7
BRK	18	192	1
BRK	18	192	6
HLD	19	0	5	192
TAP	19	192	4
TAP	19	288	4
HLD	20	0	3	192
TAP	20	192	4
TAP	20	288	4
HLD	21	0	5	192
TAP	21	192	4
TAP	21	288	3
TAP	22	0	2
TAP	22	96	2
XTP	22	192	2
XTP	22	192	3
HLD	23	0	2	192
TAP	23	192	3
TAP	23	288	3
HLD	24	0	4	192
TAP	24	192	3
TAP	24	288	3
TAP	25	0	2
TAP	25	96	1
TAP	25	192	0
TAP	25	288	7
TAP	26	0	7
TAP	26	96	0
TAP	26	96	7
XTP	26	192	1
XTP	26	192	6
TAP	27	0	5
TAP	27	96	5
TAP	27	192	4
TAP	28	0	2
TAP	28	96	2
TAP	28	192	3
TAP	29	0	5
TAP	29	96	5
TAP	29	192	4
TAP	29	288	4
TAP	30	0	3
TAP	30	96	2
XTP	30	192	1
XTP	30	192	3
TAP	31	0	5
TAP	31	96	5
XTP	31	192	4
XTP	31	192	5
TAP	32	0	2
TAP	32	96	2
XTP	32	192	2
XTP	32	192	3
TAP	33	0	5
TAP	33	96	5
TAP	33	192	6
TAP	33	288	6
TAP	34	0	7
TAP	34	96	0
TAP	34	96	7
XTP	34	192	1
XTP	34	192	6
STR	35	0	1
SI_	35	0	1	96	192	4
STR	36	0	5
SI_	36	0	5	96	192	0
STR	37	0	1
SCR	37	0	1	96	192	4
TAP	38	0	5
TAP	38	96	5
TAP	38	192	6
XTP	38	288	0
XTP	38	288	7
BRK	39	0	1
BRK	39	0	6
TTP	39	192	5	B	0	L1
TTP	40	0	3	B	0	L1
TTP	40	192	1	B	0	L1
TTP	41	0	0	C	0	L1
TTP	41	192	6	B	0	L1
TTP	42	0	7	B	0	L1
TTP	42	192	1	B	0	L1
THO	43	0	0	384	C	1	L1
TAP	45	0	1
TAP	45	96	0
TAP	45	96	1
TAP	45	192	7
TAP	45	288	0
TAP	45	288	6
TAP	46	0	6
TAP	46	96	6
TAP	46	96	7
XTP	46	192	0
XTP	46	192	5
HLD	47	0	5	96
TAP	47	96	4
HLD	47	192	2	96
TAP	47	288	3
TAP	48	0	4
XTP	48	96	3
XTP	48	96	4
BRK	48	192	2
BRK	48	192	5
TAP	49	0	6
TAP	49	96	6
TAP	49	96	7
TAP	49	192	0
TAP	49	288	1
TAP	49	288	7
TAP	50	0	1
TAP	50	96	0
TAP	50	96	1
XTP	50	192	2
XTP	50	192	7
TAP	51	0	2
TAP	51	96	3
TAP	51	192	4
TAP	51	288	5
XTP	52	0	6
XTP	52	96	6
XTP	52	96	7
BRK	52	192	0
BRK	52	192	5
TAP	53	0	6
TAP	53	96	6
TAP	53	96	7
TAP	53	192	1
TAP	53	288	0
TAP	53	288	1
TAP	54	0	2
TAP	54	96	2
TAP	54	96	3
XTP	54	192	1
XTP	54	192	4
HLD	55	0	5	96
TAP	55	96	4
HLD	55	192	2	96
TAP	55	288	3
TAP	56	0	4
XTP	56	96	3
XTP	56	96	4
BRK	56	192	1
BRK	56	192	6
TAP	57	0	1
TAP	57	96	0
TAP	57	96	1
TAP	57	192	6
TAP	57	288	6
TAP	57	288	7
TAP	58	0	5
TAP	58	96	4
TAP	58	96	5
XTP	58	192	3
XTP	58	192	6
TAP	59	0	2
TAP	59	96	3
TAP	59	192	4
TAP	59	288	5
XTP	60	0	6
XTP	60	96	0
XTP	60	96	7
BRK	60	192	1
BRK	60	192	6
XST	61	0	0
SI_	61	0	0	96	144	4
XST	61	0	1
SI_	61	0	1	96	144	4
TAP	62	0	5
TAP	62	96	5
BRK	62	192	4
BRK	62	192	6
XST	63	0	6
SI_	63	0	6	96	144	3
XST	63	0	7
SI_	63	0	7	96	144	3
TAP	64	0	2
TAP	64	96	2
BRK	64	192	1
BRK	64	192	3
XST	65	0	3
SI_	65	0	3	96	144	0
XST	65	0	4
SI_	65	0	4	96	144	7
TAP	66	0	1
TAP	66	0	6
TAP	66	96	2
TAP	66	96	5
BRK	66	192	3
BRK	66	192	4
TTP	67	0	3	B	0	L1
TTP	67	0	4	B	0	L1
TTP	67	192	2	B	0	L1
TTP	67	192	5	B	0	L1
THO	68	0	0	192	C	1	L1

T_REC_TAP	128
T_REC_BRK	20
T_REC_XTP	51
T_REC_HLD	18
T_REC_XHO	0
T_REC_STR	3
T_REC_BST	0
T_REC_XST	6
T_REC_TTP	11
T_REC_THO	2
T_REC_SLD	9
T_REC_ALL	248
T_NUM_TAP	199
T_NUM_BRK	20
T_NUM_HLD	20
T_NUM_SLD	9
T_NUM_ALL	248
T_JUDGE_TAP	219
T_JUDGE_HLD	88
T_JUDGE_SLD	9
T_JUDGE_ALL	316
TTM_EACHPAIRS	55
TTM_SCR_TAP	99500
TTM_SCR_BRK	52000
TTM_SCR_HLD	20000
TTM_SCR_SLD	13500
TTM_SCR_ALL	185000
TTM_SCR_S	177550
TTM_SCR_SS	183000
TTM_RAT_ACV	10109

