VERSION	0.00.00	1.03.00
FES_MODE	0
BPM_DEF	128.000	128.000	128.000	128.000
MET_DEF	4	4
RESOLUTION	384
CLK_DEF	384
COMPATIBLE_CODE	MA2

BPM	0	0	128.000
MET	0	0	4	4

TAP	6	0	3
TAP	6	192	3
TAP	7	0	3
TAP	8	0	4
TAP	8	192	4
XHO	9	0	3	384
XHO	9	0	4	384
TAP	11	0	3
TAP	11	192	3
TAP	12	0	2
TAP	12	192	2
TAP	13	0	1
TAP	13	192	1
TAP	14	0	0
TAP	14	96	0
XTP	14	192	0
TAP	15	0	7
TAP	15	192	7
TAP	16	0	6
TAP	16	192	6
TAP	17	0	5
TAP	17	192	5
TAP	18	0	4
TAP	18	96	4
BRK	18	192	4
HLD	19	0	3	192
TAP	20	0	3
TAP	20	192	3
HLD	21	0	4	192
TAP	22	0	4
TAP	22	96	4
TAP	22	192	4
TAP	23	0	5
TAP	23	192	5
TAP	24	0	6
TAP	24	192	6
TAP	25	0	7
TAP	25	192	7
TAP	26	0	7
TAP	26	96	0
XTP	26	192	7
HLD	27	0	0	192
TAP	28	0	0
TAP	28	192	0
HLD	29	0	7	192
TAP	30	0	7
TAP	30	96	7
TAP	30	192	7
TAP	31	0	0
TAP	31	192	0
TAP	32	0	1
TAP	32	192	1
TAP	33	0	2
TAP	33	192	2
TAP	34	0	3
TAP	34	96	4
BRK	34	192	3
TTP	35	0	4	B	0	L1
TTP	36	0	5	B	0	L1
TTP	37	0	6	B	0	L1
TTP	38	0	7	B	0	L1
TTP	39	0	0	B	0	L1
TTP	40	0	1	B	0	L1
TTP	41	0	2	B	0	L1
TTP	42	0	3	B	0	L1
THO	43	0	0	384	C	1	L1
TAP	45	0	7
TAP	45	96	7
TAP	45	192	7
TAP	46	0	6
TAP	46	96	6
TAP	46	192	6
TAP	47	0	5
TAP	47	96	5
TAP	47	192	5
TAP	48	0	4
TAP	48	96	3
TAP	48	192	4
TAP	49	0	3
TAP	49	96	3
TAP	49	192	3
TAP	50	0	2
TAP	50	96	2
TAP	50	192	2
HLD	51	0	1	192
HLD	52	0	0	192
HLD	52	0	7	192
TAP	53	0	0
TAP	53	96	0
TAP	53	192	0
TAP	54	0	1
TAP	54	96	1
TAP	54	192	1
TAP	55	0	2
TAP	55	96	2
TAP	55	192	2
TAP	56	0	3
TAP	56	96	4
TAP	56	192	3
TAP	57	0	4
TAP	57	96	4
TAP	57	192	4
TAP	58	0	5
TAP	58	96	5
TAP	58	192	5
HLD	59	0	6	192
BRK	60	0	0
BRK	60	0	7
XST	61	0	7
SI_	61	0	7	96	288	4
XST	63	0	0
SI_	63	0	0	96	288	3
XTP	65	0	0
XTP	65	0	7
XTP	65	192	0
XTP	65	192	7
TAP	66	0	0
TAP	66	96	0
TAP	66	192	0
TAP	67	0	7
TAP	67	96	7
STR	67	192	7
SI_	67	192	7	96	288	3

T_REC_TAP	88
T_REC_BRK	4
T_REC_XTP	6
T_REC_HLD	8
T_REC_XHO	2
T_REC_STR	1
T_REC_BST	0
T_REC_XST	2
T_REC_TTP	8
T_REC_THO	1
T_REC_SLD	3
T_REC_ALL	123
T_NUM_TAP	105
T_NUM_BRK	4
T_NUM_HLD	11
T_NUM_SLD	3
T_NUM_ALL	123
T_JUDGE_TAP	109
T_JUDGE_HLD	56
T_JUDGE_SLD	3
T_JUDGE_ALL	168
TTM_EACHPAIRS	5
TTM_SCR_TAP	52500
TTM_SCR_BRK	10400
TTM_SCR_HLD	11000
TTM_SCR_SLD	4500
TTM_SCR_ALL	78400
TTM_SCR_S	75700
TTM_SCR_SS	78000
TTM_RAT_ACV	10051

