VERSION	0.00.00	1.03.00
FES_MODE	0
BPM_DEF	200.000	200.000	200.000	200.000
MET_DEF	4	4
RESOLUTION	384
CLK_DEF	384
COMPATIBLE_CODE	MA2

BPM	0	0	200.000
MET	0	0	4	4

STR	1	240	0
SI_	1	240	0	96	96	4
STR	1	240	7
SI_	1	240	7	96	96	3
STR	2	192	3
SV_	2	192	3	96	96	0
STR	2	192	4
SV_	2	192	4	96	96	7
XTP	3	144	1
XTP	3	192	0
XTP	3	240	1
XTP	3	288	0
XTP	4	0	7
XTP	4	48	7
XTP	4	144	6
XTP	4	192	6
XTP	5	0	3
TAP	5	48	3
TAP	5	96	4
TAP	5	144	4
TAP	5	192	3
HLD	5	240	3	96
TAP	5	336	4
XTP	6	0	2
XTP	6	0	4
TAP	6	48	3
TAP	6	96	4
XTP	6	144	3
XTP	6	144	5
TAP	6	192	4
TAP	6	240	3
TAP	6	288	2
TAP	6	288	4
XTP	7	0	1
XTP	7	0	5
TAP	7	48	1
TAP	7	48	5
TAP	7	96	2
TAP	7	96	6
TAP	7	144	2
TAP	7	144	6
TAP	7	192	3
TAP	7	192	7
TAP	7	240	3
TAP	7	240	7
STR	7	288	0
SXR	7	288	0	96	240	5
STR	7	288	4
SXR	7	288	4	96	240	1
BRK	8	0	0
BRK	8	0	4
STR	9	0	0
SV_	9	0	0	96	96	2
STR	9	192	6
SV_	9	192	6	96	96	4
STR	10	0	1
SV_	10	0	1	96	96	3
STR	10	192	7
SV_	10	192	7	96	96	5
HLD	11	0	0	96
TAP	11	96	7
TAP	11	144	1
TAP	11	144	7
TAP	11	240	4
TAP	11	240	6
TAP	11	336	2
STR	11	336	3
SXL	11	336	3	96	144	6
TAP	12	48	2
TAP	12	96	1
TAP	12	144	0
TAP	12	192	7
TAP	12	288	0
TAP	12	288	5
STR	13	0	7
SV_	13	0	7	96	96	5
STR	13	192	1
SV_	13	192	1	96	96	3
STR	14	0	6
SV_	14	0	6	96	96	4
STR	14	192	0
SV_	14	192	0	96	96	2
HLD	15	0	7	96
TAP	15	96	0
TAP	15	144	0
TAP	15	144	6
TAP	15	240	1
TAP	15	240	3
TAP	15	336	4
STR	15	336	5
SXL	15	336	5	96	144	0
TAP	16	48	4
TAP	16	96	3
TAP	16	144	2
TAP	16	192	1
TAP	16	288	2
TAP	16	288	7
HLD	17	0	2	96
HLD	17	0	3	96
TAP	17	144	2
TAP	17	144	3
TAP	17	192	1
TAP	17	192	4
TAP	17	336	4
TAP	17	336	5
TAP	18	48	4
TAP	18	48	5
TAP	18	144	4
TAP	18	144	5
TAP	18	192	3
TAP	18	192	6
TAP	18	288	2
TAP	18	288	4
TAP	19	0	0
TAP	19	0	1
TAP	19	96	1
TAP	19	96	4
TAP	19	144	3
TAP	19	144	6
TAP	19	240	6
TAP	19	240	7
HLD	19	336	0	96
HLD	19	336	5	96
TAP	20	96	1
TAP	20	96	4
TAP	20	144	1
TAP	20	144	4
STR	20	192	2
SI_	20	192	2	96	48	7
STR	20	192	3
SI_	20	192	3	96	48	6
HLD	21	0	4	96
HLD	21	0	5	96
TAP	21	144	4
TAP	21	144	5
TAP	21	192	3
TAP	21	192	6
TAP	21	336	2
TAP	21	336	3
TAP	22	48	2
TAP	22	48	3
TAP	22	144	2
TAP	22	144	3
TAP	22	192	1
TAP	22	192	4
HLD	22	288	3	96
HLD	22	288	5	96
XTP	23	48	6
XTP	23	48	7
XTP	23	144	0
XTP	23	144	5
XTP	23	192	1
XTP	23	192	4
XHO	24	0	2	72
XHO	24	72	4	72
XST	24	144	3
SI_	24	144	3	96	48	6
XTP	24	192	3
BRK	24	240	5
TAP	25	0	5
TAP	25	48	4
TAP	25	96	5
HLD	25	144	1	96
TAP	25	240	0
TAP	25	288	1
HLD	25	336	7	96
HLD	26	48	6	96
TAP	26	144	5
TAP	26	192	3
TAP	26	240	4
TAP	26	288	3
TAP	26	336	4
TAP	27	0	2
TAP	27	48	3
TAP	27	96	2
HLD	27	144	6	96
TAP	27	240	7
TAP	27	288	6
HLD	28	0	0	192
STR	28	0	5
SXL	28	0	5	96	192	3
TAP	28	288	1
TAP	29	0	2
TAP	29	48	3
TAP	29	96	2
HLD	29	144	6	96
TAP	29	240	7
TAP	29	288	6
HLD	29	336	0	96
HLD	30	48	1	96
TAP	30	144	2
TAP	30	192	4
TAP	30	240	3
TAP	30	288	4
TAP	30	336	3
TAP	31	0	2
TAP	31	0	4
TAP	31	48	3
TAP	31	96	4
TAP	31	192	3
TAP	31	192	4
TAP	31	264	2
TAP	31	264	5
TAP	31	336	1
TAP	31	336	6
STR	32	0	0
SXL	32	0	0	96	192	3
STR	32	0	7
SXR	32	0	7	96	192	4
TAP	33	0	5
TAP	33	48	4
TAP	33	96	6
HLD	33	144	0	96
TAP	33	240	2
TAP	33	288	1
HLD	33	336	7	96
TAP	34	48	5
TAP	34	96	6
TAP	34	144	0
TAP	34	192	0
TAP	34	192	7
TAP	34	288	2
TAP	34	288	5
STR	35	0	1
SI_	35	0	1	96	48	4
TAP	35	96	7
TAP	35	144	7
STR	35	192	6
SI_	35	192	6	96	48	3
STR	35	288	0
SI_	35	288	0	96	48	3
TAP	35	336	0
STR	36	0	0
SI_	36	0	0	96	48	5
STR	36	96	0
SF_	36	96	0	96	48	4
STR	37	0	4
SI_	37	0	4	96	48	0
STR	37	0	5
SI_	37	0	5	96	48	0
STR	37	192	2
SI_	37	192	2	96	48	7
STR	37	192	3
SI_	37	192	3	96	48	7
TAP	38	0	4
TAP	38	0	6
TAP	38	96	1
TAP	38	96	3
BRK	38	192	6
BRK	38	192	7
BRK	38	288	6
BRK	38	288	7
STR	39	0	1
SV_	39	0	1	96	48	4
STR	39	0	5
SV_	39	0	5	96	48	0
STR	39	192	2
SV_	39	192	2	96	48	7
STR	39	192	6
SV_	39	192	6	96	48	3
STR	40	0	0
SV_	40	0	0	96	96	2
STR	40	0	4
SV_	40	0	4	96	96	6
TAP	40	288	0
TAP	40	288	7
TAP	41	0	2
TAP	41	48	3
TAP	41	96	1
HLD	41	144	7	96
TAP	41	240	5
TAP	41	288	6
HLD	41	336	0	96
TAP	42	48	2
TAP	42	96	1
TAP	42	144	7
TAP	42	192	0
TAP	42	192	7
TAP	42	288	2
TAP	42	288	5
STR	43	0	6
SI_	43	0	6	96	48	3
TAP	43	96	0
TAP	43	144	0
STR	43	192	1
SI_	43	192	1	96	48	4
STR	43	288	7
SI_	43	288	7	96	48	4
TAP	43	336	7
STR	44	0	7
SI_	44	0	7	96	48	2
STR	44	96	7
SF_	44	96	7	96	48	3
HLD	45	0	5	96
TTP	45	96	3	E	0	M1
HLD	45	192	2	96
TTP	45	288	7	E	0	M1
HLD	46	0	6	96
TTP	46	96	1	E	0	M1
HLD	46	192	1	96
TTP	46	288	5	E	0	M1
STR	47	0	3
SI_	47	0	3	96	48	5
STR	47	0	4
SI_	47	0	4	96	48	2
STR	47	192	3
SI_	47	192	3	96	48	6
STR	47	192	4
SI_	47	192	4	96	48	1
STR	48	0	3
SSR	48	0	3	96	72	7
STR	48	0	4
SSL	48	0	4	96	72	0
TAP	48	288	7
TAP	48	336	0
HLD	49	0	1	192
XTP	49	96	0
XTP	49	144	7
XHO	49	192	6	192
TAP	49	240	4
TAP	49	288	3
TAP	49	336	2
HLD	50	0	1	192
XTP	50	48	3
XTP	50	96	4
XTP	50	144	5
XTP	50	192	6
TAP	50	240	0
XTP	50	240	7
TAP	50	288	1
XTP	50	288	6
TAP	50	336	2
XTP	50	336	5
HLD	51	0	3	96
XHO	51	0	4	96
TAP	51	192	0
XTP	51	192	1
XTP	51	288	2
TAP	51	288	7
XHO	52	0	3	192
HLD	52	0	6	192
TAP	52	240	5
TAP	52	288	4
TAP	52	336	3
STR	53	0	3
SCR	53	0	3	96	48	6
XTP	53	48	2
XTP	53	96	1
XTP	53	144	0
XST	53	192	0
SCR	53	192	0	96	48	3
TAP	53	240	7
TAP	53	288	6
TAP	53	336	5
STR	54	0	5
SCR	54	0	5	96	48	0
XTP	54	48	4
XTP	54	96	3
XTP	54	144	2
TAP	54	192	1
XTP	54	192	2
TAP	54	288	0
XTP	54	288	3
XST	55	0	3
SXR	55	0	3	96	192	0
STR	55	0	7
SXR	55	0	7	96	192	4
XTP	56	0	1
TAP	56	0	6
BRK	56	48	0
BRK	56	48	7
BRK	56	144	0
BRK	56	192	7
TAP	56	288	0
TAP	56	336	1
STR	57	0	2
SI_	57	0	2	96	48	7
XTP	57	96	6
XTP	57	144	5
XST	57	192	4
SI_	57	192	4	96	48	0
TAP	57	240	3
TAP	57	288	2
TAP	57	336	1
STR	58	0	1
SI_	58	0	1	96	48	4
XTP	58	48	4
XTP	58	96	5
XTP	58	144	6
XTP	58	192	6
TAP	58	240	3
XTP	58	240	7
TAP	58	288	2
XTP	58	288	6
TAP	58	336	1
XTP	58	336	5
HLD	59	0	0	96
XHO	59	0	4	96
TAP	59	192	0
XTP	59	192	4
TAP	59	288	2
XTP	59	288	6
STR	60	0	1
SSR	60	0	1	96	96	5
XST	60	0	5
SSR	60	0	5	96	96	1
TAP	60	288	3
XTP	60	288	7
TAP	60	336	2
XTP	60	336	6
STR	61	0	1
SI_	61	0	1	96	48	6
XST	61	0	5
SI_	61	0	5	96	48	2
TAP	61	240	0
XTP	61	240	4
TAP	61	288	1
XTP	61	288	5
TAP	61	336	2
XTP	61	336	6
STR	62	0	3
SI_	62	0	3	96	48	0
XST	62	0	7
SI_	62	0	7	96	48	4
TAP	62	240	2
XTP	62	240	6
TAP	62	288	1
XTP	62	288	5
TAP	62	336	0
XTP	62	336	4
STR	63	0	3
SCR	63	0	3	96	48	6
STR	63	0	7
SCR	63	0	7	96	48	2
TAP	63	192	3
XTP	63	192	7
TAP	63	288	2
XTP	63	288	6
XTP	64	0	0
TAP	64	24	7
XTP	64	48	0
TAP	64	72	7
XTP	64	96	0
TAP	64	120	7
XTP	64	144	0
TAP	64	168	7
XST	64	192	0
SF_	64	192	0	96	48	4
BRK	64	288	0
XTP	65	0	7
TAP	65	24	0
XTP	65	48	7
TAP	65	72	0
XTP	65	96	7
TAP	65	120	0
XTP	65	144	7
TAP	65	168	0
XST	65	192	7
SF_	65	192	7	96	48	3
BRK	65	288	7
XTP	66	0	1
XTP	66	0	6
XTP	66	96	1
XTP	66	96	6
TAP	66	192	0
TAP	66	240	7
BST	66	288	1
SUR	66	288	1	96	72	5
BRK	66	288	6
TAP	67	0	1
TAP	67	0	6
STR	67	96	6
SCL	67	96	6	96	72	3
TAP	67	192	2
TAP	67	192	6
STR	67	288	2
SXL	67	288	2	96	192	5
TAP	67	336	2
TAP	67	336	4
BRK	68	96	7
BRK	68	192	7
TAP	68	240	6
TAP	68	288	6
TAP	69	0	4
TAP	69	0	6
TAP	69	48	5
TAP	69	96	4
TAP	69	96	6
TAP	69	192	1
TAP	69	192	3
TAP	69	240	2
STR	69	288	1
SUR	69	288	1	96	144	7
STR	69	288	3
SCR	69	288	3	96	144	7
TAP	70	0	1
TAP	70	0	3
TAP	70	288	6
TAP	70	336	7
HLD	71	0	6	192
BRK	71	96	0
BRK	71	144	0
BRK	71	192	0
TAP	71	240	1
TAP	71	288	0
TAP	71	336	2
HLD	72	0	2	96
HLD	72	0	3	96
TAP	72	144	1
TAP	72	144	4
TAP	72	288	0
TAP	72	336	0
TAP	73	0	6
TAP	73	0	7
TAP	73	48	5
TAP	73	96	3
TAP	73	96	4
TAP	73	144	2
TAP	73	192	0
TAP	73	192	1
TAP	73	240	2
TAP	73	288	3
TAP	73	288	4
TAP	73	324	5
HLD	74	0	6	96
HLD	74	0	7	96
TAP	74	144	0
TAP	74	144	5
TAP	74	240	4
TAP	74	240	5
BRK	74	288	3
BST	74	288	6
SUL	74	288	6	96	72	2
TAP	75	0	1
TAP	75	0	6
STR	75	96	1
SCR	75	96	1	96	72	4
TAP	75	192	1
TAP	75	192	5
STR	75	288	5
SXR	75	288	5	96	192	2
TAP	75	336	3
TAP	75	336	5
BRK	76	96	0
BRK	76	192	0
TAP	76	240	1
TAP	76	288	1
TAP	77	0	0
TAP	77	0	2
TAP	77	48	1
TAP	77	96	0
TAP	77	96	2
TAP	77	192	5
TAP	77	192	7
TAP	77	240	6
STR	77	288	5
SCL	77	288	5	96	144	0
STR	77	288	7
SXL	77	288	7	96	144	0
TAP	78	0	5
TAP	78	0	7
TAP	78	288	5
TAP	78	336	4
HLD	79	0	5	192
TAP	79	96	6
TAP	79	192	4
TAP	79	240	2
TAP	79	288	3
TAP	79	336	1
HLD	80	0	0	96
HLD	80	0	1	96
TAP	80	144	2
TAP	80	144	7
TAP	80	288	3
TAP	80	336	5
XTP	81	0	0
XTP	81	0	7
TAP	81	48	0
TAP	81	48	7
TAP	81	96	1
TAP	81	96	6
TAP	81	144	1
TAP	81	144	6
XTP	81	192	2
XTP	81	192	5
TAP	81	240	2
TAP	81	240	5
TAP	81	288	3
TAP	81	288	4
TAP	81	336	3
TAP	81	336	4
TAP	82	0	3
TAP	82	24	4
TAP	82	48	3
TAP	82	72	4
TAP	82	96	3
TAP	82	120	4
TAP	82	144	3
TAP	82	168	4
TAP	82	192	3
TAP	82	216	4
TAP	82	240	3
TAP	82	264	4
TAP	82	288	3
TAP	82	312	4
TAP	82	336	3
TAP	82	360	4
BRK	83	0	2
BRK	83	0	5
XTP	83	192	0
XTP	83	288	0
TAP	84	0	2
TAP	84	48	3
TAP	84	96	2
HLD	84	144	6	96
TAP	84	240	7
TAP	84	288	6
HLD	84	336	0	96
HLD	85	48	1	96
TAP	85	144	2
TAP	85	192	4
TAP	85	240	3
TAP	85	288	4
TAP	85	336	3
TAP	86	0	5
TAP	86	48	4
TAP	86	96	5
HLD	86	144	1	96
TAP	86	240	0
TAP	86	288	1
STR	87	0	2
SXR	87	0	2	96	192	4
HLD	87	0	7	192
TAP	87	288	6
TAP	88	0	5
TAP	88	48	4
TAP	88	96	5
HLD	88	144	1	96
TAP	88	240	0
TAP	88	288	1
HLD	88	336	7	96
HLD	89	48	6	96
TAP	89	144	5
TAP	89	192	3
TAP	89	240	4
TAP	89	288	3
TAP	89	336	4
TAP	90	0	3
TAP	90	0	5
TAP	90	48	4
TAP	90	96	3
TAP	90	192	3
TAP	90	192	4
TAP	90	264	2
TAP	90	264	5
TAP	90	336	1
TAP	90	336	6
STR	91	0	0
SXL	91	0	0	96	192	3
STR	91	0	7
SXR	91	0	7	96	192	4
THO	92	0	0	576	C	1	M1
TTP	92	0	2	B	0	M1
TTP	92	0	3	B	0	M1
TTP	92	0	4	B	0	M1
TTP	92	0	5	B	0	M1
BST	93	192	6
SI_	93	192	6	96	672	2
TTP	94	336	5	E	0	M1

T_REC_TAP	340
T_REC_BRK	24
T_REC_XTP	81
T_REC_HLD	48
T_REC_XHO	6
T_REC_STR	68
T_REC_BST	3
T_REC_XST	9
T_REC_TTP	9
T_REC_THO	1
T_REC_SLD	80
T_REC_ALL	669
T_NUM_TAP	507
T_NUM_BRK	27
T_NUM_HLD	55
T_NUM_SLD	80
T_NUM_ALL	669
T_JUDGE_TAP	534
T_JUDGE_HLD	138
T_JUDGE_SLD	80
T_JUDGE_ALL	752
TTM_EACHPAIRS	149
TTM_SCR_TAP	253500
TTM_SCR_BRK	70200
TTM_SCR_HLD	55000
TTM_SCR_SLD	120000
TTM_SCR_ALL	498700
TTM_SCR_S	481150
TTM_SCR_SS	496000
TTM_RAT_ACV	10054

