VERSION	0.00.00	1.03.00
FES_MODE	0
BPM_DEF	200.000	200.000	200.000	200.000
MET_DEF	4	4
RESOLUTION	384
CLK_DEF	384
COMPATIBLE_CODE	MA2

BPM	0	0	200.000
MET	0	0	4	4

HLD	1	0	1	384
HLD	1	0	5	384
STR	3	0	3
SV_	3	0	3	96	288	1
STR	3	0	7
SV_	3	0	7	96	288	5
STR	5	0	1
SV_	5	0	1	96	288	7
STR	5	0	5
SV_	5	0	5	96	288	3
THO	7	0	0	384	C	1	M1
TAP	9	0	0
TAP	9	0	1
TAP	9	192	2
TAP	9	192	3
TAP	10	0	4
TAP	10	0	5
TAP	10	192	6
TAP	10	192	7
HLD	11	0	1	96
TAP	11	96	7
TAP	11	144	7
STR	11	240	2
SXR	11	240	2	96	240	4
TAP	11	240	6
TAP	12	192	7
TAP	12	288	7
TAP	13	0	6
TAP	13	0	7
TAP	13	192	4
TAP	13	192	5
TAP	14	0	2
TAP	14	0	3
TAP	14	192	0
TAP	14	192	1
HLD	15	0	6	96
TAP	15	96	0
TAP	15	144	0
TAP	15	240	1
STR	15	240	5
SXL	15	240	5	96	240	3
TAP	16	192	0
TAP	16	288	0
HLD	17	0	0	96
HLD	17	0	7	96
HLD	17	192	1	96
HLD	17	192	2	96
HLD	18	0	3	96
HLD	18	0	4	96
HLD	18	192	5	96
HLD	18	192	6	96
HLD	19	0	1	96
TAP	19	96	7
TAP	19	144	7
STR	19	240	2
SXL	19	240	2	96	240	0
TAP	19	240	6
TAP	20	192	7
TAP	20	288	7
HLD	21	0	0	96
HLD	21	0	7	96
HLD	21	192	5	96
HLD	21	192	6	96
HLD	22	0	3	96
HLD	22	0	4	96
HLD	22	192	1	96
HLD	22	192	2	96
XHO	23	48	0	96
TAP	23	144	7
TAP	23	192	0
TAP	23	192	7
XTP	24	0	1
XTP	24	0	6
XTP	24	72	2
XTP	24	72	5
XTP	24	144	3
XTP	24	144	4
XTP	24	192	3
XTP	24	192	4
TAP	25	0	2
TAP	25	96	1
TAP	25	96	4
TAP	25	192	0
TAP	25	240	0
TAP	25	288	7
HLD	26	0	6	96
HLD	26	96	4	96
HLD	26	192	3	96
TAP	26	288	2
STR	27	0	0
SCR	27	0	0	96	96	3
STR	27	192	4
SCR	27	192	4	96	96	7
HLD	28	0	1	96
TAP	28	96	0
TAP	28	192	2
TAP	28	192	7
TAP	28	288	4
TAP	28	288	5
TAP	29	0	5
TAP	29	96	3
TAP	29	96	6
TAP	29	192	7
TAP	29	240	7
TAP	29	288	0
HLD	30	0	1	96
HLD	30	96	3	96
HLD	30	192	4	96
TAP	30	288	5
STR	31	0	6
SI_	31	0	6	96	96	2
STR	31	192	1
SI_	31	192	1	96	96	5
TAP	32	0	7
TAP	32	96	0
TAP	32	96	7
BRK	32	192	1
BRK	32	192	6
TAP	33	0	3
HLD	33	0	5	672
TAP	33	96	3
TAP	33	192	4
TAP	33	288	4
TAP	34	0	3
TAP	34	96	4
TAP	34	192	3
TAP	34	288	4
TAP	35	0	0
TAP	35	0	6
TAP	35	96	2
TAP	35	96	4
TAP	35	192	0
TAP	35	192	6
TAP	35	288	2
TAP	35	288	4
STR	36	0	2
SI_	36	0	2	96	96	0
STR	36	0	4
SI_	36	0	4	96	96	6
XTP	36	288	0
HLD	37	0	2	672
TAP	37	0	4
TAP	37	96	4
TAP	37	192	3
TAP	37	288	3
TAP	38	0	4
TAP	38	96	3
TAP	38	192	4
TAP	38	288	3
STR	39	0	7
SI_	39	0	7	96	96	3
STR	39	192	0
SI_	39	192	0	96	96	4
HLD	40	0	7	288
BRK	40	96	0
BRK	40	192	0
BRK	40	288	0
TTP	41	0	0	E	0	M1
TTP	41	96	1	E	0	M1
TTP	41	192	2	E	0	M1
TTP	41	288	3	E	0	M1
TTP	42	0	3	B	0	M1
TTP	42	0	4	B	0	M1
TTP	42	96	2	E	0	M1
TTP	42	96	6	E	0	M1
TTP	42	192	1	E	0	M1
TTP	42	192	7	E	0	M1
TAP	43	0	1
TAP	43	0	7
TAP	43	96	3
TAP	43	96	5
TAP	43	192	1
TAP	43	192	7
TAP	43	288	3
TAP	43	288	5
STR	44	0	3
SI_	44	0	3	96	96	1
STR	44	0	5
SI_	44	0	5	96	96	7
XTP	44	288	7
HLD	45	0	4	96
HLD	45	0	6	96
TAP	45	192	3
TAP	45	192	5
TAP	45	288	2
TAP	45	288	4
HLD	46	0	1	96
HLD	46	0	3	96
TAP	46	192	2
TAP	46	192	4
TAP	46	288	3
TAP	46	288	5
HLD	47	0	4	96
HLD	47	0	6	96
HLD	47	192	1	96
HLD	47	192	3	96
TAP	48	0	0
TAP	48	0	7
BRK	48	96	1
BRK	48	96	6
BRK	48	192	1
BRK	48	192	6
TAP	48	288	5
TAP	49	0	3
STR	49	0	4
SCR	49	0	4	96	96	7
TAP	49	288	2
STR	50	0	3
SCL	50	0	3	96	96	0
TAP	50	0	4
TAP	50	288	5
HLD	51	0	5	192
HLD	51	192	7	192
HLD	52	0	0	192
TAP	52	192	2
TAP	52	288	2
STR	53	0	3
SV_	53	0	3	96	96	0
TAP	53	0	4
TAP	53	288	5
TAP	54	0	3
STR	54	0	4
SV_	54	0	4	96	96	7
TAP	54	288	2
HLD	55	0	2	192
HLD	55	192	0	192
TAP	56	0	7
BRK	56	192	2
BRK	56	192	6
TAP	56	288	5
TAP	57	0	3
STR	57	0	6
SI_	57	0	6	96	96	2
TAP	57	192	1
TAP	57	288	2
STR	58	0	1
SI_	58	0	1	96	96	5
TAP	58	0	4
TAP	58	192	6
TAP	58	288	5
HLD	59	0	5	192
HLD	59	192	7	192
HLD	60	0	0	192
TAP	60	192	2
TAP	60	288	2
STR	61	0	1
SI_	61	0	1	96	96	5
TAP	61	0	4
TAP	61	192	7
TAP	61	288	5
TAP	62	0	3
STR	62	0	6
SI_	62	0	6	96	96	2
TAP	62	192	0
TAP	62	288	2
HLD	63	0	2	192
HLD	63	192	0	192
HLD	64	0	7	192
TAP	64	192	5
THO	65	0	0	384	C	1	M1
XTP	66	288	0
XTP	66	288	7
TAP	67	0	0
TAP	67	0	6
TAP	67	96	1
TAP	67	96	7
TAP	67	192	0
TAP	67	192	6
TAP	67	288	1
TAP	67	288	7
TAP	68	0	0
TAP	68	0	6
BRK	68	96	7
BRK	68	192	7
TAP	68	288	2
TAP	68	288	5
HLD	69	0	6	96
HLD	69	96	4	96
HLD	69	192	3	96
TAP	69	288	1
STR	70	0	0
SV_	70	0	0	96	96	2
STR	70	0	4
SV_	70	0	4	96	96	6
TAP	70	288	0
TAP	70	336	0
HLD	71	0	7	96
BRK	71	96	4
BRK	71	192	0
TAP	71	288	1
STR	71	288	5
SXL	71	288	5	96	288	3
TAP	72	288	1
TAP	72	336	1
TAP	73	0	0
TAP	73	0	1
TAP	73	96	2
TAP	73	96	3
TAP	73	192	4
TAP	73	192	5
STR	73	288	6
SI_	73	288	6	96	96	3
STR	73	288	7
SI_	73	288	7	96	96	2
XTP	74	144	1
XTP	74	144	4
TAP	75	0	2
TAP	75	0	7
TAP	75	96	0
TAP	75	96	5
TAP	75	192	2
TAP	75	192	7
TAP	75	288	0
TAP	75	288	5
TAP	76	0	2
TAP	76	0	7
BRK	76	96	0
BRK	76	192	0
TAP	76	288	2
TAP	76	288	5
HLD	77	0	1	96
HLD	77	96	3	96
HLD	77	192	4	96
TAP	77	288	6
STR	78	0	3
SV_	78	0	3	96	96	1
STR	78	0	7
SV_	78	0	7	96	96	5
TAP	78	288	7
TAP	78	336	7
HLD	79	0	0	96
BRK	79	96	3
BRK	79	192	7
STR	79	288	2
SXR	79	288	2	96	288	4
TAP	79	288	6
TAP	80	288	6
TAP	80	336	6
HLD	81	0	6	96
HLD	81	0	7	96
HLD	81	192	0	96
HLD	81	192	1	96
STR	82	0	3
SCL	82	0	3	96	144	0
STR	82	0	4
SCR	82	0	4	96	144	7
TTP	83	0	0	C	1	M1
TTP	83	0	2	E	0	M1
TTP	83	0	6	E	0	M1
HLD	84	0	6	96
TAP	84	96	7
TAP	84	192	5
TAP	84	240	5
TAP	84	288	4
HLD	85	0	3	96
HLD	85	96	2	96
HLD	85	192	1	96
TAP	85	288	0
STR	86	0	2
SCR	86	0	2	96	96	5
STR	86	192	6
SCR	86	192	6	96	96	1
TAP	87	0	2
TAP	87	96	3
TAP	87	96	5
TAP	87	192	6
TAP	87	288	0
TAP	87	288	7
HLD	88	0	1	96
TAP	88	96	0
TAP	88	192	2
TAP	88	240	2
TAP	88	288	3
HLD	89	0	4	96
HLD	89	96	5	96
HLD	89	192	6	96
TAP	89	288	7
STR	90	0	5
SCL	90	0	5	96	96	2
STR	90	192	1
SCL	90	192	1	96	96	6
STR	91	0	5
SXL	91	0	5	96	288	2
HLD	92	0	0	384
BRK	93	0	7
TTP	93	192	0	E	0	M1
TTP	93	192	0	C	1	M1
TTP	93	192	4	E	0	M1

T_REC_TAP	184
T_REC_BRK	20
T_REC_XTP	14
T_REC_HLD	71
T_REC_XHO	1
T_REC_STR	40
T_REC_BST	0
T_REC_XST	0
T_REC_TTP	16
T_REC_THO	2
T_REC_SLD	40
T_REC_ALL	388
T_NUM_TAP	254
T_NUM_BRK	20
T_NUM_HLD	74
T_NUM_SLD	40
T_NUM_ALL	388
T_JUDGE_TAP	274
T_JUDGE_HLD	228
T_JUDGE_SLD	40
T_JUDGE_ALL	542
TTM_EACHPAIRS	92
TTM_SCR_TAP	127000
TTM_SCR_BRK	52000
TTM_SCR_HLD	74000
TTM_SCR_SLD	60000
TTM_SCR_ALL	313000
TTM_SCR_S	301700
TTM_SCR_SS	311000
TTM_RAT_ACV	10064

