VERSION	0.00.00	1.03.00
FES_MODE	0
BPM_DEF	200.000	200.000	200.000	200.000
MET_DEF	4	4
RESOLUTION	384
CLK_DEF	387
COMPATIBLE_CODE	MA2

BPM	0	0	200.000
MET	0	0	4	4

XHO	1	0	5	384
HLD	2	0	4	384
HLD	3	0	3	384
TAP	4	0	2
TAP	4	192	2
TAP	5	0	1
TAP	5	96	1
TAP	5	192	1
TAP	6	0	0
TAP	6	96	0
TAP	6	192	0
TAP	7	0	7
TAP	7	96	7
TAP	7	192	0
TAP	7	192	7
TAP	7	288	0
TAP	7	288	7
BRK	8	0	1
BRK	8	0	6
HLD	9	0	4	96
HLD	9	0	5	96
HLD	9	192	3	96
HLD	9	192	4	96
HLD	10	0	2	96
HLD	10	0	3	96
HLD	10	192	3	96
HLD	10	192	4	96
TAP	11	0	5
TAP	11	96	5
TAP	11	192	4
TAP	12	0	2
TAP	12	96	2
XTP	12	192	2
XTP	12	192	3
HLD	13	0	2	96
HLD	13	0	3	96
HLD	13	192	3	96
HLD	13	192	4	96
HLD	14	0	4	96
HLD	14	0	5	96
HLD	14	192	3	96
HLD	14	192	4	96
TAP	15	0	2
TAP	15	96	2
TAP	15	192	3
TAP	16	0	5
TAP	16	96	5
XTP	16	192	4
XTP	16	192	6
TAP	17	0	5
TAP	17	96	5
TAP	17	192	4
TAP	18	0	2
TAP	18	96	2
TAP	18	192	3
TAP	19	0	5
TAP	19	96	5
TAP	19	192	4
TAP	19	288	4
TAP	20	0	3
TAP	20	96	2
XTP	20	192	1
XTP	20	192	3
TAP	21	0	2
TAP	21	96	2
TAP	21	192	3
TAP	22	0	5
TAP	22	96	5
TAP	22	192	4
TAP	23	0	2
TAP	23	96	2
TAP	23	192	1
TAP	23	288	1
TAP	24	0	0
TAP	24	96	7
BRK	24	192	1
BRK	24	192	6
TAP	25	0	6
TAP	25	96	6
TAP	25	192	7
TAP	25	288	0
TAP	26	0	1
TAP	26	96	1
TAP	26	192	0
TAP	26	192	1
TAP	27	0	1
TAP	27	96	1
TAP	27	192	0
TAP	27	288	7
TAP	28	0	6
TAP	28	96	6
TAP	28	96	7
XTP	28	192	0
XTP	28	192	5
TAP	29	0	6
TAP	29	96	6
TAP	29	192	7
TAP	29	288	0
TAP	30	0	1
TAP	30	96	1
TAP	30	192	0
TAP	30	192	1
TAP	31	0	1
TAP	31	96	1
TAP	31	192	0
TAP	31	288	7
XTP	32	0	0
XTP	32	0	7
XTP	32	96	0
XTP	32	96	7
BRK	32	192	1
BRK	32	192	6
HLD	33	0	5	192
TAP	33	192	4
TAP	33	288	4
HLD	34	0	3	192
TAP	34	192	4
TAP	34	288	4
TAP	35	0	5
TAP	35	96	5
TAP	35	192	4
TAP	35	288	3
TAP	36	0	2
XTP	36	96	1
XTP	36	96	3
XTP	36	192	1
XTP	36	192	3
HLD	37	0	2	192
TAP	37	192	3
TAP	37	288	3
HLD	38	0	4	192
TAP	38	192	3
TAP	38	288	3
HLD	39	0	2	192
HLD	39	192	3	192
HLD	40	0	4	192
XTP	40	192	5
HLD	41	0	5	192
TAP	41	192	4
TAP	41	288	3
HLD	42	0	2	192
TAP	42	192	3
TAP	42	288	4
TAP	43	0	5
TAP	43	96	5
TAP	43	192	4
TAP	43	288	3
TAP	44	0	2
XTP	44	96	1
XTP	44	96	3
XTP	44	192	1
XTP	44	192	3
HLD	45	0	2	192
TAP	45	192	3
TAP	45	288	4
HLD	46	0	5	192
TAP	46	192	4
TAP	46	288	3
TAP	47	0	2
TAP	47	96	2
TAP	47	192	1
TAP	47	288	0
TAP	48	0	7
TAP	48	96	0
TAP	48	96	7
XTP	48	192	1
XTP	48	192	6
STR	49	0	7
SI_	49	0	7	96	192	4
STR	50	0	3
SI_	50	0	3	96	192	0
STR	51	0	7
SCL	51	0	7	96	288	3
XTP	52	96	2
XTP	52	192	2
STR	53	0	1
SI_	53	0	1	96	192	4
STR	54	0	5
SI_	54	0	5	96	192	0
STR	55	0	1
SCR	55	0	1	96	192	4
XTP	56	0	5
XTP	56	96	5
XTP	56	192	5
TTP	57	0	6	B	0	L1
TTP	57	192	0	C	0	L1
TTP	58	0	2	B	0	L1
TTP	59	0	1	B	0	L1
TTP	59	192	0	C	0	L1
TTP	60	0	5	B	0	L1
TTP	61	0	6	B	0	L1
TTP	61	192	0	C	0	L1
TTP	62	0	2	B	0	L1
TTP	62	192	1	B	0	L1
TTP	63	0	0	C	0	L1
TTP	63	192	5	B	0	L1
THO	64	0	0	384	C	1	L1
XTP	66	0	1
XTP	66	0	6
XTP	66	96	1
XTP	66	96	6
TAP	67	0	6
XTP	67	96	6
XTP	67	96	7
TAP	67	192	1
XTP	67	288	0
XTP	67	288	1
XTP	68	0	0
XTP	68	0	1
BRK	68	96	7
BRK	68	192	7
TAP	69	0	6
TAP	69	96	5
STR	69	192	3
SI_	69	192	3	96	192	0
STR	69	192	4
SI_	69	192	4	96	192	7
XTP	70	192	1
XTP	70	192	6
TAP	71	0	6
XTP	71	96	6
XTP	71	96	7
TAP	71	192	1
XTP	71	288	0
XTP	71	288	1
TAP	72	0	7
TAP	72	96	7
XTP	72	192	1
XTP	72	192	6
TAP	73	0	5
TAP	73	96	4
TAP	73	192	2
STR	73	288	3
SV_	73	288	3	96	240	0
SV_	73	288	3	96	240	6
TAP	75	0	1
XTP	75	96	0
XTP	75	96	1
TAP	75	192	6
XTP	75	288	6
XTP	75	288	7
XTP	76	0	0
XTP	76	0	5
BRK	76	96	7
BRK	76	192	7
TAP	77	0	1
TAP	77	96	2
STR	77	192	3
SCL	77	192	3	96	192	0
STR	77	192	4
SCR	77	192	4	96	192	7
XTP	78	192	1
XTP	78	192	6
TAP	79	0	1
XTP	79	96	0
XTP	79	96	1
TAP	79	192	6
XTP	79	288	6
XTP	79	288	7
TAP	80	0	0
TAP	80	96	0
XTP	80	192	1
XTP	80	192	6
TAP	81	0	2
TAP	81	96	3
TAP	81	192	5
TAP	81	288	4
TAP	82	0	3
TAP	82	96	2
TAP	82	192	1
TAP	82	288	0
TAP	82	288	7
BRK	83	0	1
BRK	83	0	6
TAP	84	0	1
TAP	84	96	1
TAP	84	192	2
TAP	84	288	2
TAP	85	0	3
TAP	85	96	3
TAP	85	192	4
TAP	85	192	5
TAP	86	0	6
TAP	86	96	6
TAP	86	192	5
TAP	86	288	4
TAP	87	0	3
XTP	87	96	2
XTP	87	96	3
XTP	87	192	2
XTP	87	192	3
TAP	88	0	1
TAP	88	96	1
TAP	88	192	2
TAP	88	288	2
TAP	89	0	3
TAP	89	96	3
XTP	89	192	4
XTP	89	192	5
XTP	90	0	6
XTP	90	0	7
XTP	90	192	0
XTP	90	192	1
XTP	91	0	0
XTP	91	0	7
XTP	91	96	1
XTP	91	96	6
BRK	91	192	2
BRK	91	192	5
TTP	92	0	3	B	0	L1
TTP	92	0	4	B	0	L1
TTP	92	192	2	B	0	L1
TTP	92	192	5	B	0	L1
THO	93	0	0	168	C	1	L1

T_REC_TAP	155
T_REC_BRK	14
T_REC_XTP	74
T_REC_HLD	29
T_REC_XHO	1
T_REC_STR	11
T_REC_BST	0
T_REC_XST	0
T_REC_TTP	16
T_REC_THO	2
T_REC_SLD	12
T_REC_ALL	314
T_NUM_TAP	256
T_NUM_BRK	14
T_NUM_HLD	32
T_NUM_SLD	12
T_NUM_ALL	314
T_JUDGE_TAP	270
T_JUDGE_HLD	112
T_JUDGE_SLD	12
T_JUDGE_ALL	394
TTM_EACHPAIRS	57
TTM_SCR_TAP	128000
TTM_SCR_BRK	36400
TTM_SCR_HLD	32000
TTM_SCR_SLD	18000
TTM_SCR_ALL	214400
TTM_SCR_S	206650
TTM_SCR_SS	213000
TTM_RAT_ACV	10065

