VERSION	0.00.00	1.03.00
FES_MODE	0
BPM_DEF	200.000	200.000	200.000	200.000
MET_DEF	4	4
RESOLUTION	384
CLK_DEF	384
COMPATIBLE_CODE	MA2

BPM	0	0	200.000
MET	0	0	4	4

XTP	5	0	0
XTP	5	0	7
XTP	6	0	0
XTP	6	0	7
XTP	7	0	0
XTP	7	0	7
XTP	7	192	0
XTP	7	192	7
BRK	8	0	0
BRK	8	0	7
TAP	9	0	0
TAP	10	0	0
XTP	11	0	1
XTP	11	192	1
XTP	12	0	1
TAP	13	0	2
TAP	14	0	2
XTP	15	0	3
XTP	15	192	3
XTP	16	0	3
TAP	17	0	4
TAP	18	0	4
XTP	19	0	5
XTP	19	192	5
XTP	20	0	5
TAP	21	0	6
TAP	22	0	6
XTP	23	0	7
XTP	23	192	7
BRK	24	0	7
TAP	25	0	6
TAP	25	192	6
TAP	26	0	6
TAP	27	0	5
TAP	27	192	5
TAP	28	0	5
TAP	29	0	4
TAP	29	192	4
TAP	30	0	4
TAP	31	0	3
TAP	31	0	4
TAP	31	192	3
TAP	31	192	4
XTP	32	0	2
XTP	32	0	5
TAP	33	0	1
TAP	33	192	1
TAP	34	0	1
TAP	35	0	0
TAP	35	192	0
XTP	36	0	0
XTP	36	0	7
TAP	37	0	6
TAP	37	192	6
TAP	38	0	6
TAP	39	0	7
TAP	39	192	7
XTP	40	0	0
XTP	40	0	7
HLD	41	0	1	384
TAP	43	0	2
TAP	43	192	2
TAP	44	0	2
TAP	44	0	3
TAP	45	0	4
TAP	45	192	4
TAP	46	0	5
TAP	46	192	5
TAP	47	0	6
TAP	47	192	6
HLD	48	0	0	192
HLD	48	0	7	192
STR	49	0	0
SI_	49	0	0	96	288	4
TAP	51	0	5
TAP	51	192	5
TAP	52	0	5
STR	53	0	7
SI_	53	0	7	96	288	3
HLD	55	0	2	384
TTP	57	0	3	B	0	L1
TTP	58	0	4	B	0	L1
TTP	59	0	5	B	0	L1
TTP	60	0	6	B	0	L1
TTP	61	0	0	B	0	L1
TTP	61	0	7	B	0	L1
TTP	62	0	1	B	0	L1
TTP	62	0	6	B	0	L1
TTP	63	0	2	B	0	L1
TTP	63	0	5	B	0	L1
THO	64	0	0	768	C	1	L1
TAP	67	0	7
TAP	67	96	7
TAP	67	192	7
TAP	68	0	7
TAP	69	0	6
TAP	69	96	6
TAP	69	192	6
TAP	70	0	6
TAP	71	0	5
TAP	71	192	5
TAP	72	0	4
TAP	72	192	4
TAP	73	0	3
TAP	73	96	3
TAP	73	192	3
BRK	74	0	3
BRK	74	0	4
TAP	75	0	3
TAP	75	96	3
TAP	75	192	3
TAP	76	0	3
TAP	77	0	2
TAP	77	96	2
TAP	77	192	2
TAP	78	0	2
TAP	79	0	1
TAP	79	192	1
TAP	80	0	0
TAP	80	192	0
TAP	81	0	7
TAP	81	96	7
TAP	81	192	7
HLD	82	0	0	384
HLD	82	0	7	384
TAP	84	0	0
TAP	84	96	0
TAP	84	192	0
TAP	85	0	1
TAP	85	96	1
TAP	85	192	1
TAP	86	0	2
TAP	86	96	2
TAP	86	192	2
HLD	87	0	3	192
TAP	88	0	4
TAP	88	96	4
TAP	88	192	4
TAP	89	0	5
TAP	89	96	5
TAP	89	192	5
TAP	90	0	6
TAP	90	96	6
TAP	90	192	6
HLD	91	0	7	192
THO	92	0	0	576	C	1	L1

T_REC_TAP	92
T_REC_BRK	5
T_REC_XTP	25
T_REC_HLD	8
T_REC_XHO	0
T_REC_STR	2
T_REC_BST	0
T_REC_XST	0
T_REC_TTP	10
T_REC_THO	2
T_REC_SLD	2
T_REC_ALL	146
T_NUM_TAP	129
T_NUM_BRK	5
T_NUM_HLD	10
T_NUM_SLD	2
T_NUM_ALL	146
T_JUDGE_TAP	134
T_JUDGE_HLD	76
T_JUDGE_SLD	2
T_JUDGE_ALL	212
TTM_EACHPAIRS	14
TTM_SCR_TAP	64500
TTM_SCR_BRK	13000
TTM_SCR_HLD	10000
TTM_SCR_SLD	3000
TTM_SCR_ALL	90500
TTM_SCR_S	87300
TTM_SCR_SS	90000
TTM_RAT_ACV	10055

