VERSION	0.00.00	1.03.00
FES_MODE	0
BPM_DEF	187.000	187.000	187.000	187.000
MET_DEF	4	4
RESOLUTION	384
CLK_DEF	384
COMPATIBLE_CODE	MA2

BPM	0	0	187.000
MET	0	0	4	4
CLK	0	0
CLK	0	96
CLK	0	192
CLK	0	288

TAP	2	0	3
TAP	2	48	3
TAP	2	96	4
TAP	2	120	3
TAP	2	144	4
TAP	2	192	2
TAP	2	216	3
TAP	2	264	5
TAP	2	288	4
TAP	3	0	2
TAP	3	24	3
TAP	3	48	2
STR	3	96	5
SSR	3	96	5	96	96	1
TAP	3	120	4
TAP	3	144	5
TTP	4	0	3	E	0	M1
TTP	4	24	3	B	0	M1
TTP	4	48	4	B	0	M1
TTP	4	72	5	E	0	M1
XTP	4	96	0
TTP	4	192	7	E	0	M1
TTP	4	216	7	B	0	M1
TTP	4	240	0	B	0	M1
TTP	4	264	1	E	0	M1
XTP	4	288	4
XTP	5	0	2
XTP	5	0	3
TAP	5	48	1
XTP	5	96	4
XTP	5	96	5
TAP	5	144	6
BRK	5	192	0
BRK	5	216	7
BRK	5	240	0
BRK	5	264	7
BRK	5	288	0
BRK	5	312	7
BRK	5	336	0
BRK	5	360	7
HLD	6	0	1	96
TAP	6	96	3
HLD	6	144	4	96
TAP	6	240	3
TAP	6	288	2
HLD	6	336	1	96
TAP	7	48	0
TAP	7	96	7
HLD	7	144	6	96
TAP	7	240	5
TAP	7	288	4
HLD	7	336	3	96
TAP	8	48	4
TAP	8	96	5
HLD	8	144	6	96
TAP	8	240	7
TAP	8	288	0
HLD	8	336	1	144
STR	9	0	7
SI_	9	0	7	96	48	3
TAP	9	96	7
TTP	9	192	2	E	0	M1
TTP	9	288	0	E	0	M1
TTP	9	288	4	E	0	M1
TAP	10	0	2
HLD	10	0	5	96
TAP	10	96	4
HLD	10	144	3	96
TAP	10	240	4
TAP	10	288	5
HLD	10	336	6	96
TAP	11	48	7
TAP	11	96	0
HLD	11	144	1	96
TAP	11	240	2
TAP	11	288	3
HLD	11	336	4	96
TAP	12	48	3
TAP	12	96	2
HLD	12	144	1	96
TAP	12	240	0
TAP	12	288	7
HLD	12	336	6	144
STR	13	0	0
SI_	13	0	0	96	48	4
TAP	13	96	0
TAP	13	192	5
TAP	13	216	4
TAP	13	240	5
TAP	13	264	4
TAP	13	288	5
TAP	13	312	4
TAP	13	336	5
TAP	13	360	4
TAP	14	0	6
HLD	14	48	6	96
TAP	14	96	5
TAP	14	144	4
TAP	14	192	3
HLD	14	240	3	96
TAP	14	288	4
TAP	14	336	5
TAP	15	0	6
HLD	15	48	6	96
TAP	15	96	7
TAP	15	144	0
TAP	15	192	1
HLD	15	240	1	96
TAP	15	288	2
TAP	15	336	3
TAP	16	0	4
HLD	16	48	4	96
TAP	16	96	3
TAP	16	144	2
TAP	16	192	1
HLD	16	240	1	96
TAP	16	288	0
HLD	16	336	7	144
STR	17	0	0
SI_	17	0	0	96	48	4
TAP	17	96	0
TTP	17	192	6	E	0	M1
TTP	17	288	0	E	0	M1
TTP	17	288	4	E	0	M1
TAP	18	0	1
HLD	18	48	1	96
TAP	18	96	2
TAP	18	144	3
TAP	18	192	4
HLD	18	240	4	96
TAP	18	288	3
TAP	18	336	2
TAP	19	0	1
HLD	19	48	1	96
TAP	19	96	0
TAP	19	144	7
TAP	19	192	6
HLD	19	240	6	96
TAP	19	288	5
TAP	19	336	4
TAP	20	0	3
HLD	20	48	3	96
TAP	20	96	4
TAP	20	144	5
TAP	20	192	6
HLD	20	240	6	96
STR	20	288	7
SCL	20	288	7	96	192	0
TAP	20	336	0
TAP	21	0	1
TTP	21	192	0	C	0	M1
BRK	21	288	1
BRK	21	288	5
TAP	22	0	2
TAP	22	48	3
TAP	22	96	4
TAP	22	144	5
TAP	22	192	2
TAP	22	216	3
TAP	22	240	1
TAP	22	288	7
TAP	22	336	7
TAP	23	0	3
TAP	23	48	2
TAP	23	96	5
TAP	23	120	4
TAP	23	144	6
BRK	23	192	3
BRK	23	192	7
TAP	24	0	5
TAP	24	48	4
TAP	24	96	3
TAP	24	144	2
TAP	24	192	5
TAP	24	216	4
TAP	24	240	6
TAP	24	288	0
XTP	24	336	0
XTP	24	336	7
TAP	25	48	2
TAP	25	48	3
XTP	25	96	1
XTP	25	96	4
TTP	25	192	4	B	0	M1
TTP	25	192	5	B	0	M1
TTP	25	192	6	E	0	M1
TTP	25	288	0	B	0	M1
TTP	25	288	0	E	0	M1
TTP	25	288	1	B	0	M1
TAP	26	0	2
TAP	26	48	3
TAP	26	96	4
TAP	26	144	5
TAP	26	192	2
TAP	26	216	3
TAP	26	240	1
TAP	26	288	7
TAP	26	336	7
TAP	27	0	0
TAP	27	48	7
TAP	27	96	6
TAP	27	144	5
XTP	27	192	4
XTP	27	192	6
XTP	27	288	1
XTP	27	288	3
TAP	28	0	5
TAP	28	48	4
TAP	28	96	3
TAP	28	144	2
TAP	28	192	5
TAP	28	216	4
STR	28	240	6
SCL	28	240	6	96	240	7
TAP	28	288	1
HLD	28	336	1	240
BRK	29	288	0
BRK	29	288	5
TAP	30	0	1
TAP	30	0	3
TAP	30	48	2
TAP	30	96	3
TAP	30	96	5
TAP	30	144	4
TAP	30	192	2
TAP	30	216	3
TAP	30	240	2
TAP	30	288	1
TAP	30	336	0
TAP	31	0	7
TAP	31	48	6
TAP	31	96	4
TAP	31	96	5
BRK	31	192	6
BRK	31	192	7
BRK	31	288	2
BRK	31	288	3
TAP	32	0	7
TAP	32	24	6
TAP	32	48	5
TAP	32	72	4
TAP	32	96	0
TAP	32	120	1
TAP	32	144	2
TAP	32	168	3
TAP	32	192	4
TAP	32	216	5
TAP	32	240	6
TAP	32	264	7
TAP	32	288	0
TAP	32	312	1
TAP	32	336	2
TAP	32	360	3
TAP	33	0	7
TAP	33	24	6
TAP	33	48	5
TAP	33	72	4
TAP	33	96	3
TAP	33	120	2
TAP	33	144	1
TAP	33	168	0
TAP	33	192	3
TAP	33	192	7
BRK	33	288	1
BRK	33	288	5
TAP	34	0	6
TAP	34	24	7
TAP	34	48	6
TAP	34	72	7
TAP	34	96	5
TAP	34	120	0
TAP	34	144	5
TAP	34	168	0
TAP	34	192	4
TAP	34	216	1
TAP	34	240	4
TAP	34	264	1
HLD	34	288	3	96
TAP	35	0	1
TAP	35	24	0
TAP	35	48	1
TAP	35	72	0
TAP	35	96	2
TAP	35	120	7
TAP	35	144	2
TAP	35	168	7
TAP	35	192	3
TAP	35	216	6
TAP	35	240	3
TAP	35	264	6
HLD	35	288	4	96
XTP	36	0	5
TAP	36	72	2
TAP	36	72	3
TAP	36	144	4
TAP	36	144	6
TAP	36	216	1
TAP	36	216	3
TAP	36	288	6
TAP	36	288	7
TAP	36	336	0
TAP	36	336	2
TAP	37	0	3
XTP	37	24	3
TAP	37	96	2
TAP	37	96	7
TAP	37	168	4
TAP	37	168	6
XTP	37	240	0
XTP	37	240	5
XTP	37	288	1
XTP	37	288	6
XTP	37	336	2
XTP	37	336	7
TAP	38	0	4
TAP	38	0	6
TAP	38	48	5
TAP	38	96	2
TAP	38	96	4
TAP	38	144	3
TAP	38	192	5
TAP	38	216	4
TAP	38	240	5
TAP	38	288	6
TAP	38	336	7
TAP	39	0	0
TAP	39	48	1
TAP	39	96	2
TAP	39	96	3
BRK	39	192	0
BRK	39	192	1
BRK	39	288	4
BRK	39	288	5
TAP	40	0	0
TAP	40	24	1
TAP	40	48	2
TAP	40	72	3
TAP	40	96	7
TAP	40	120	6
TAP	40	144	5
TAP	40	168	4
TAP	40	192	3
TAP	40	216	2
TAP	40	240	1
TAP	40	264	0
TAP	40	288	7
TAP	40	312	6
TAP	40	336	5
TAP	40	360	4
TAP	41	0	0
TAP	41	24	1
TAP	41	48	2
TAP	41	72	3
TAP	41	96	4
TAP	41	120	5
TAP	41	144	6
TAP	41	168	7
TAP	41	192	0
TAP	41	192	4
BRK	41	288	2
BRK	41	288	6
TAP	42	0	1
TAP	42	24	0
TAP	42	48	1
TAP	42	72	0
TAP	42	96	2
TAP	42	120	7
TAP	42	144	2
TAP	42	168	7
TAP	42	192	3
TAP	42	216	6
TAP	42	240	3
TAP	42	264	6
HLD	42	288	4	96
TAP	43	0	6
TAP	43	24	7
TAP	43	48	6
TAP	43	72	7
TAP	43	96	5
TAP	43	120	0
TAP	43	144	5
TAP	43	168	0
TAP	43	192	4
TAP	43	216	1
TAP	43	240	4
TAP	43	264	1
HLD	43	288	3	96
XTP	44	0	2
TAP	44	72	4
TAP	44	72	5
TAP	44	144	1
TAP	44	144	3
TAP	44	216	4
TAP	44	216	6
TAP	44	288	0
TAP	44	288	1
TAP	44	336	6
TAP	44	336	7
TAP	45	0	3
TAP	45	0	4
XHO	45	24	3	144
XHO	45	24	4	72
TTP	46	0	3	B	0	M1
TTP	46	0	4	B	0	M1
TTP	46	96	0	C	0	M1
TTP	46	144	6	E	0	M1
TTP	46	168	5	B	0	M1
TTP	46	192	4	B	0	M1
TTP	46	288	0	B	0	M1
TTP	46	288	7	E	0	M1
TTP	47	0	3	B	0	M1
TTP	47	0	4	B	0	M1
TTP	47	96	0	C	0	M1
TTP	47	144	2	E	0	M1
TTP	47	168	2	B	0	M1
TTP	47	192	3	B	0	M1
TTP	47	288	1	E	0	M1
TTP	47	288	7	B	0	M1
TAP	48	0	3
TAP	48	0	4
TAP	48	72	5
TAP	48	144	5
TAP	48	192	3
TAP	48	192	4
TAP	48	264	2
HLD	48	336	2	96
TTP	49	48	7	E	0	M1
TTP	49	72	6	B	0	M1
TTP	49	96	5	B	0	M1
TTP	49	144	3	E	0	M1
TTP	49	168	3	B	0	M1
TTP	49	192	4	B	0	M1
TTP	49	288	0	C	1	M1
TTP	49	288	1	E	0	M1
TTP	49	288	5	E	0	M1
XTP	50	0	6
XTP	50	0	7
TAP	50	72	0
TAP	50	96	0
TAP	50	144	5
TAP	50	168	4
TAP	50	192	5
TAP	50	264	3
TAP	50	264	6
TAP	50	336	1
TAP	50	336	4
TAP	51	24	6
TAP	51	48	6
TAP	51	96	3
TAP	51	144	2
TAP	51	144	4
TAP	51	192	1
TAP	51	192	5
TAP	51	264	4
TAP	51	264	6
TAP	51	336	1
TAP	51	336	3
XHO	52	0	0	72
XHO	52	72	1	72
TAP	52	144	2
XHO	52	192	6	72
XHO	52	264	5	72
TAP	52	336	4
TAP	53	48	2
TAP	53	72	3
TAP	53	96	2
TAP	53	144	1
TAP	53	144	4
STR	53	192	0
SI_	53	192	0	96	48	4
STR	53	192	5
SI_	53	192	5	96	48	7
BRK	53	288	0
BRK	53	288	5
TAP	54	0	2
TAP	54	24	2
TAP	54	72	0
TAP	54	96	1
TAP	54	120	0
TAP	54	168	6
STR	54	192	7
SI_	54	192	7	96	48	3
TAP	54	288	0
BRK	54	288	7
TAP	55	0	5
TAP	55	24	5
TAP	55	72	7
TAP	55	96	6
TAP	55	120	7
TAP	55	168	1
STR	55	192	0
SI_	55	192	0	96	48	4
BRK	55	288	0
TAP	55	288	7
TTP	56	0	6	B	0	M1
TTP	56	24	5	B	0	M1
TTP	56	48	5	E	0	M1
TAP	56	96	0
TAP	56	144	0
TTP	56	192	1	B	0	M1
TTP	56	216	2	B	0	M1
TTP	56	240	3	E	0	M1
TAP	56	288	6
TAP	56	336	6
TTP	57	0	6	E	0	M1
TTP	57	24	5	B	0	M1
TTP	57	48	4	B	0	M1
TAP	57	96	1
TAP	57	144	1
TTP	57	192	2	E	0	M1
TTP	57	216	2	B	0	M1
TTP	57	240	3	B	0	M1
TAP	57	288	7
TAP	57	336	7
XTP	58	0	0
TTP	58	12	1	E	0	M1
TTP	58	24	1	B	0	M1
TTP	58	36	2	B	0	M1
TTP	58	48	3	E	0	M1
XTP	58	96	7
TTP	58	108	7	E	0	M1
TTP	58	120	6	B	0	M1
TTP	58	132	5	B	0	M1
TTP	58	144	5	E	0	M1
XTP	58	192	1
TTP	58	204	2	E	0	M1
TTP	58	216	2	B	0	M1
TTP	58	228	3	B	0	M1
TTP	58	240	4	E	0	M1
XTP	58	288	6
TTP	58	300	6	E	0	M1
TTP	58	312	5	B	0	M1
TTP	58	324	4	B	0	M1
TTP	58	336	4	E	0	M1
XTP	59	0	0
TTP	59	12	1	E	0	M1
TTP	59	24	1	B	0	M1
TTP	59	36	2	B	0	M1
TTP	59	48	3	E	0	M1
XTP	59	96	6
TTP	59	108	6	E	0	M1
TTP	59	120	5	B	0	M1
TTP	59	132	4	B	0	M1
TTP	59	144	4	E	0	M1
XTP	59	192	1
TTP	59	204	2	E	0	M1
TTP	59	216	2	B	0	M1
TTP	59	228	3	B	0	M1
TTP	59	240	4	E	0	M1
XTP	59	288	7
TTP	59	300	7	E	0	M1
TTP	59	312	6	B	0	M1
TTP	59	324	5	B	0	M1
TTP	59	336	5	E	0	M1
XTP	60	0	1
TAP	60	24	0
TAP	60	48	1
TAP	60	72	0
TAP	60	96	2
TAP	60	120	7
TAP	60	144	3
TAP	60	168	6
XTP	60	192	4
TAP	60	216	5
TAP	60	240	4
TAP	60	264	5
TAP	60	288	3
TAP	60	312	6
TAP	60	336	2
TAP	60	360	7
XTP	61	0	1
XTP	61	12	2
XTP	61	24	3
XTP	61	36	4
XTP	61	48	5
XTP	61	60	6
XTP	61	72	7
XTP	61	84	0
XTP	61	96	1
XTP	61	108	2
XTP	61	120	3
XTP	61	132	4
XTP	61	144	5
XTP	61	156	6
XTP	61	168	7
XTP	61	180	0
XTP	61	192	1
XTP	61	204	2
XTP	61	216	3
XTP	61	228	4
XTP	61	240	5
XTP	61	252	6
XTP	61	264	7
XTP	61	276	0
XTP	61	288	1
XTP	61	300	2
XTP	61	312	3
XTP	61	324	4
XTP	61	336	5
XTP	61	348	6
XTP	61	360	7
XTP	61	372	0
XHO	62	0	1	192
XHO	62	0	5	192
TTP	62	288	0	C	1	M1
TTP	62	288	2	E	0	M1
TTP	62	288	6	E	0	M1
BRK	63	0	0
BRK	63	0	7
TAP	63	48	0
TAP	63	48	7
TAP	63	72	1
TAP	63	72	6
TAP	63	96	2
TAP	63	96	5
TAP	63	192	3
TAP	63	192	7
TAP	63	240	2
TAP	63	240	6
TAP	63	288	1
TAP	63	288	5
HLD	63	336	0	96
TAP	63	336	4
TAP	64	48	5
TAP	64	96	4
TAP	64	96	6
TAP	64	144	7
TAP	64	192	0
TAP	64	192	1
HLD	64	240	2	144
TAP	64	240	3
TAP	64	264	4
TAP	64	288	5
TAP	64	312	6
TAP	64	336	7
TAP	64	360	0
STR	65	0	1
SI_	65	0	1	96	48	5
STR	65	96	2
SI_	65	96	2	96	48	7
TAP	65	144	2
STR	65	192	6
SI_	65	192	6	96	48	3
TAP	65	240	6
TAP	65	288	1
TAP	65	336	1
XTP	66	0	0
XTP	66	0	1
XTP	66	48	2
XST	66	48	7
SI_	66	48	7	96	48	3
XST	66	144	0
SI_	66	144	0	96	48	4
XTP	66	144	7
XTP	66	240	0
XTP	66	240	5
XTP	66	336	0
XTP	66	336	7
BRK	67	0	1
BRK	67	0	6
TAP	67	48	2
TAP	67	72	3
TAP	67	96	2
TAP	67	144	5
TAP	67	168	4
TAP	67	192	5
TAP	67	240	1
TAP	67	264	0
TAP	67	288	1
TAP	67	336	2
TAP	67	336	7
TAP	68	0	5
TAP	68	24	4
TAP	68	48	5
TAP	68	72	4
TAP	68	96	6
TAP	68	144	2
TAP	68	168	3
TAP	68	192	2
TAP	68	216	3
TAP	68	240	1
TAP	68	288	0
TAP	68	288	7
TAP	68	336	1
TAP	68	336	6
STR	69	0	5
SI_	69	0	5	96	48	2
TAP	69	48	5
STR	69	96	1
SI_	69	96	1	96	48	6
TAP	69	144	1
TAP	69	192	4
STR	69	240	4
SCR	69	240	4	96	192	3
TAP	69	288	0
HLD	69	336	0	144
TTP	70	192	0	C	0	M1
BRK	70	288	1
BRK	70	288	5
XTP	71	0	0
XTP	71	0	7
TAP	71	48	0
TAP	71	48	7
TAP	71	72	1
TAP	71	72	6
TAP	71	96	2
TAP	71	96	5
TAP	71	192	0
TAP	71	192	4
TAP	71	240	1
TAP	71	240	5
TAP	71	288	2
TAP	71	288	6
TAP	71	336	3
HLD	71	336	7	96
TAP	72	48	2
TAP	72	96	1
TAP	72	96	3
TAP	72	144	0
TAP	72	192	6
TAP	72	192	7
TAP	72	240	4
HLD	72	240	5	144
TAP	72	264	3
TAP	72	288	2
TAP	72	312	1
TAP	72	336	0
TAP	72	360	7
STR	73	0	6
SI_	73	0	6	96	48	2
STR	73	96	5
SI_	73	96	5	96	48	0
TAP	73	144	5
STR	73	192	1
SI_	73	192	1	96	48	4
TAP	73	240	1
TAP	73	288	6
TAP	73	336	6
XTP	74	0	6
XTP	74	0	7
XST	74	48	0
SI_	74	48	0	96	48	4
XTP	74	48	5
XTP	74	144	0
XST	74	144	7
SI_	74	144	7	96	48	3
XTP	74	240	2
XTP	74	240	7
XTP	74	336	0
XTP	74	336	7
BRK	75	0	1
BRK	75	0	6
TAP	75	48	6
TAP	75	72	7
TAP	75	96	6
TAP	75	144	4
TAP	75	144	6
TAP	75	192	6
TAP	75	216	7
TAP	75	240	6
TAP	75	288	1
TAP	75	288	6
TAP	75	336	0
TAP	75	336	7
TAP	76	0	1
TAP	76	24	0
TAP	76	48	1
TAP	76	72	0
TAP	76	96	1
TAP	76	144	1
TAP	76	168	3
TAP	76	192	1
TAP	76	216	3
TAP	76	240	1
TAP	76	288	3
TAP	76	288	4
TAP	76	336	2
TAP	76	336	5
XTP	77	0	1
TAP	77	24	0
TAP	77	48	2
TAP	77	72	7
TAP	77	96	3
TAP	77	120	6
TAP	77	144	4
TAP	77	168	5
XTP	77	192	2
TAP	77	216	3
TAP	77	240	1
TAP	77	264	4
TAP	77	288	0
TAP	77	312	5
TAP	77	336	7
XTP	78	0	6
XTP	78	0	7
XTP	78	24	6
XTP	78	24	7
XTP	78	72	0
XTP	78	72	1
XTP	78	96	0
XTP	78	96	1
XST	78	144	3
SCL	78	144	3	96	96	0
XST	78	144	4
SCR	78	144	4	96	96	7
XTP	78	168	3
XTP	78	168	4
BRK	79	96	1
BRK	79	96	6
TAP	79	192	0
TAP	79	216	7
TAP	79	240	0
TAP	79	288	1
TAP	79	288	6
TAP	79	336	2
TAP	79	336	5
TAP	80	0	3
TAP	80	0	4
TAP	80	48	5
TAP	80	96	4
TAP	80	96	6
TAP	80	144	7
TAP	80	192	0
TAP	80	192	1
HLD	80	240	2	144
TAP	80	240	3
TAP	80	264	4
TAP	80	288	5
TAP	80	312	6
TAP	80	336	7
TAP	80	360	0
STR	81	0	1
SI_	81	0	1	96	48	5
TAP	81	48	3
STR	81	96	2
SI_	81	96	2	96	48	7
TAP	81	144	2
STR	81	192	6
SI_	81	192	6	96	48	3
TAP	81	240	6
TAP	81	288	0
XST	81	336	0
SI_	81	336	0	96	48	4
XTP	82	48	0
XST	82	48	7
SI_	82	48	7	96	48	3
TAP	82	96	6
XTP	82	144	2
XTP	82	144	7
TAP	82	192	1
TAP	82	240	0
TAP	82	264	7
TAP	82	288	0
BRK	82	336	1
BRK	82	336	6
XTP	83	0	3
XTP	83	0	4
TAP	83	48	5
TAP	83	72	4
TAP	83	96	6
TAP	83	144	2
TAP	83	168	3
TAP	83	192	1
TAP	83	240	6
TAP	83	264	7
TAP	83	288	5
TAP	83	312	7
TAP	83	336	6
TAP	84	0	1
TAP	84	24	3
TAP	84	48	2
TAP	84	72	3
TAP	84	96	1
TAP	84	144	6
TAP	84	168	4
TAP	84	192	5
TAP	84	216	4
TAP	84	240	6
TAP	84	288	0
TAP	84	288	7
TAP	84	336	1
TAP	84	336	6
STR	85	0	2
SI_	85	0	2	96	48	5
TAP	85	48	2
STR	85	96	6
SI_	85	96	6	96	48	1
TAP	85	144	6
TAP	85	192	3
STR	85	240	3
SCL	85	240	3	96	192	4
TAP	85	288	7
HLD	85	336	7	144
TTP	86	192	0	C	0	M1
TTP	86	192	3	B	0	M1
TTP	86	192	4	B	0	M1
BRK	86	288	2
BRK	86	288	6
XTP	87	0	0
XTP	87	0	7
TAP	87	48	0
TAP	87	48	7
TAP	87	72	1
TAP	87	72	6
TAP	87	96	2
TAP	87	96	5
XTP	87	192	1
XTP	87	192	5
TAP	87	216	2
TAP	87	216	6
TAP	87	240	3
TAP	87	240	7
XTP	87	288	3
XTP	87	288	7
BRK	87	336	1
BRK	87	336	5
TAP	88	48	2
TAP	88	72	3
TAP	88	96	1
TAP	88	144	5
TAP	88	168	4
TAP	88	192	6
XTP	88	240	3
XTP	88	240	7
TAP	88	264	2
TAP	88	264	6
TAP	88	288	1
TAP	88	288	5
TAP	88	312	0
TAP	88	312	4
HLD	88	336	3	96
TAP	88	336	7
TAP	89	48	2
TAP	89	72	3
TAP	89	96	2
TAP	89	144	1
TAP	89	168	0
TAP	89	192	1
TAP	89	240	6
TAP	89	264	7
TAP	89	288	6
BRK	89	336	0
BRK	89	336	5
TAP	90	48	3
TAP	90	48	7
XTP	90	96	3
XTP	90	96	7
TAP	90	120	2
TAP	90	120	6
TAP	90	144	1
TAP	90	144	5
XTP	90	192	3
XTP	90	192	7
TAP	90	216	0
TAP	90	216	4
TAP	90	240	1
TAP	90	240	5
TAP	90	264	2
TAP	90	264	6
XTP	90	288	3
XTP	90	288	7
XTP	90	336	0
TAP	90	352	7
TAP	90	368	6
HLD	91	0	5	48
XTP	91	48	0
TAP	91	64	1
TAP	91	80	2
HLD	91	96	3	48
XTP	91	144	6
TAP	91	160	5
TAP	91	176	4
HLD	91	192	3	48
XTP	91	240	7
TAP	91	256	0
TAP	91	272	1
HLD	91	288	2	48
TAP	91	336	7
XTP	92	0	0
XTP	92	0	7
TAP	92	16	1
TAP	92	16	6
TAP	92	32	2
TAP	92	32	5
TAP	92	48	3
TAP	92	48	4
TAP	92	96	1
TAP	92	96	6
XTP	92	144	2
TAP	92	168	3
TAP	92	192	0
XTP	92	240	5
TAP	92	264	4
TAP	92	288	7
BRK	92	336	1
BRK	92	336	6
TAP	93	0	1
TAP	93	24	0
TAP	93	48	2
TAP	93	72	7
TAP	93	96	3
TAP	93	120	6
TAP	93	144	4
TAP	93	168	5
TAP	93	192	7
TAP	93	216	6
TAP	93	240	0
TAP	93	264	5
TAP	93	288	1
TAP	93	312	4
TAP	93	336	2
TAP	93	360	3
TTP	94	0	1	B	0	M1
TTP	94	24	7	B	0	M1
TTP	94	48	3	B	0	M1
TTP	94	72	5	B	0	M1
TTP	94	96	0	B	0	M1
TTP	94	120	6	B	0	M1
TTP	94	144	2	B	0	M1
TTP	94	168	4	B	0	M1
TTP	94	192	1	E	0	M1
TTP	94	216	7	E	0	M1
TTP	94	240	3	E	0	M1
TTP	94	264	5	E	0	M1
TTP	94	288	2	E	0	M1
TTP	94	312	6	E	0	M1
TTP	94	336	0	E	0	M1
TTP	94	360	0	C	1	M1
TTP	94	360	4	E	0	M1

T_REC_TAP	622
T_REC_BRK	50
T_REC_XTP	124
T_REC_HLD	45
T_REC_XHO	8
T_REC_STR	25
T_REC_BST	0
T_REC_XST	8
T_REC_TTP	114
T_REC_THO	0
T_REC_SLD	33
T_REC_ALL	1029
T_NUM_TAP	893
T_NUM_BRK	50
T_NUM_HLD	53
T_NUM_SLD	33
T_NUM_ALL	1029
T_JUDGE_TAP	943
T_JUDGE_HLD	118
T_JUDGE_SLD	33
T_JUDGE_ALL	1094
TTM_EACHPAIRS	150
TTM_SCR_TAP	446500
TTM_SCR_BRK	130000
TTM_SCR_HLD	53000
TTM_SCR_SLD	49500
TTM_SCR_ALL	679000
TTM_SCR_S	653800
TTM_SCR_SS	674000
TTM_RAT_ACV	10074

