VERSION	0.00.00	1.03.00
FES_MODE	0
BPM_DEF	187.000	187.000	187.000	187.000
MET_DEF	4	4
RESOLUTION	384
CLK_DEF	384
COMPATIBLE_CODE	MA2

BPM	0	0	187.000
MET	0	0	4	4
CLK	0	0
CLK	0	96
CLK	0	192
CLK	0	288

TAP	2	0	3
TAP	2	96	3
TAP	2	192	4
TAP	2	288	4
TAP	3	0	3
STR	3	96	3
SV_	3	96	3	96	96	2
STR	3	288	5
SV_	3	288	5	96	96	6
XST	4	96	1
SV_	4	96	1	96	96	0
XTP	4	288	7
XTP	5	0	1
XTP	5	0	6
XTP	5	96	1
XST	5	96	6
SSL	5	96	6	96	144	2
HLD	6	0	0	96
TAP	6	96	7
TAP	6	144	7
TAP	6	240	0
TAP	6	240	6
TAP	6	336	2
TAP	7	48	1
TAP	7	48	3
TAP	7	144	5
TAP	7	240	4
TAP	7	240	6
TAP	7	336	0
TAP	8	48	1
TAP	8	48	7
TAP	8	144	5
STR	8	240	4
SCL	8	240	4	96	240	6
TAP	8	240	6
TAP	8	336	5
HLD	10	0	7	96
TAP	10	96	0
TAP	10	144	0
TAP	10	240	1
TAP	10	240	7
TAP	10	336	5
TAP	11	48	4
TAP	11	48	6
TAP	11	144	2
TAP	11	240	1
TAP	11	240	3
TAP	11	336	7
TAP	12	48	0
TAP	12	48	6
TAP	12	144	2
TAP	12	240	1
STR	12	240	3
SCR	12	240	3	96	240	1
TAP	12	336	2
HLD	14	0	2	96
TAP	14	96	3
TAP	14	144	3
TAP	14	240	1
TAP	14	240	4
TAP	14	336	5
TAP	15	48	3
TAP	15	48	6
TAP	15	144	2
TAP	15	240	0
TAP	15	240	4
TAP	15	336	5
TAP	16	48	3
TAP	16	48	7
TAP	16	144	2
STR	16	240	0
SXL	16	240	0	96	336	5
TAP	16	240	4
TAP	16	336	6
HLD	18	0	5	96
TAP	18	96	4
TAP	18	144	4
TAP	18	240	3
TAP	18	240	6
TAP	18	336	2
TAP	19	48	1
TAP	19	48	4
TAP	19	144	5
TAP	19	240	3
TAP	19	240	7
TAP	19	336	2
TAP	20	48	0
TAP	20	48	4
TAP	20	144	5
TAP	20	240	3
STR	20	240	7
SXR	20	240	7	96	336	2
TAP	20	336	1
TAP	22	0	2
TAP	22	96	1
TAP	22	96	3
TAP	22	192	5
TAP	22	288	4
TAP	22	288	6
TAP	23	0	0
STR	23	96	0
SI_	23	96	0	96	48	4
STR	23	96	7
SI_	23	96	7	96	48	3
TAP	24	0	2
TAP	24	96	3
TAP	24	192	1
TAP	24	192	4
XTP	24	288	3
XTP	24	288	6
XTP	24	336	3
XST	24	336	6
SLL	24	336	6	96	144	0
XTP	25	288	1
XTP	25	288	7
TAP	26	0	5
TAP	26	96	4
TAP	26	192	3
TAP	26	192	6
TAP	26	288	2
TAP	26	288	4
TAP	27	0	3
TAP	27	0	5
TAP	27	96	1
TAP	27	96	4
STR	27	192	3
SI_	27	192	3	96	48	7
TAP	27	192	6
XTP	28	0	0
TAP	28	96	1
TAP	28	96	7
TAP	28	192	2
TAP	28	192	6
XTP	28	288	3
XTP	28	288	5
XST	28	336	3
SUR	28	336	3	96	192	4
XTP	28	336	5
BRK	29	288	1
BRK	29	288	6
TAP	30	0	2
TAP	30	96	1
TAP	30	96	3
TAP	30	192	7
TAP	30	240	7
TAP	30	288	0
TAP	31	0	2
TAP	31	0	3
TAP	31	96	4
TAP	31	96	5
TTP	31	192	6	B	0	M1
TTP	31	192	7	E	0	M1
TTP	31	288	2	B	0	M1
TTP	31	288	3	E	0	M1
TAP	32	0	5
TAP	32	96	4
TAP	32	96	6
TAP	32	192	0
TAP	32	240	0
TAP	32	288	7
TAP	33	0	4
TAP	33	0	5
TAP	33	96	3
TAP	33	96	4
TAP	33	192	2
TAP	33	192	3
TTP	33	288	0	C	0	M1
TTP	33	288	1	E	0	M1
TTP	33	288	5	E	0	M1
TAP	34	0	6
TAP	34	96	6
TAP	34	96	7
TAP	34	192	0
TAP	34	240	0
TAP	34	288	7
TAP	35	0	1
TAP	35	96	0
TAP	35	96	1
TAP	35	192	7
TAP	35	240	7
TAP	35	288	0
XTP	36	0	4
XTP	36	0	5
XTP	36	72	4
XTP	36	72	5
XTP	36	144	2
XTP	36	144	3
XTP	36	216	2
XTP	36	216	3
HLD	36	288	6	120
XTP	37	24	7
XTP	37	96	6
XTP	37	96	7
XTP	37	168	0
XTP	37	168	1
XTP	37	240	0
XTP	37	240	1
XTP	37	288	7
XTP	37	336	7
TAP	38	0	0
TAP	38	96	1
TAP	38	192	2
TAP	38	240	2
TAP	38	288	4
TAP	38	336	4
TAP	39	0	3
TAP	39	96	1
TAP	39	96	5
HLD	39	192	7	96
TAP	39	288	0
TAP	40	0	6
TAP	40	96	5
TAP	40	192	4
TAP	40	240	4
TAP	40	288	2
TAP	40	336	2
TAP	41	0	3
TAP	41	96	2
TAP	41	96	4
HLD	41	192	1	96
HLD	41	192	5	96
TAP	42	0	2
TAP	42	96	1
TAP	42	96	3
HLD	42	192	2	96
TAP	42	288	7
TAP	43	0	5
TAP	43	96	4
TAP	43	96	6
HLD	43	192	5	96
TAP	43	288	0
XTP	44	0	2
XTP	44	0	3
XTP	44	72	2
XTP	44	72	3
XTP	44	144	4
XTP	44	144	5
XTP	44	216	4
XTP	44	216	5
XST	44	288	1
SSR	44	288	1	96	288	5
TAP	46	96	5
TTP	46	288	5	B	0	M1
TAP	47	96	4
TTP	47	288	4	B	0	M1
TAP	48	96	3
TTP	48	288	3	B	0	M1
TAP	49	96	2
TTP	49	288	2	B	0	M1
TAP	50	0	0
STR	50	0	1
SI_	50	0	1	96	48	4
TAP	50	192	5
TAP	50	288	5
STR	51	0	6
SI_	51	0	6	96	48	3
TAP	51	0	7
TAP	51	192	2
TAP	51	288	2
STR	52	0	1
SI_	52	0	1	96	48	4
STR	52	192	0
SI_	52	192	0	96	48	5
TAP	53	0	3
TAP	53	96	4
TAP	53	192	3
TAP	53	288	2
TAP	53	288	5
STR	54	0	6
SI_	54	0	6	96	48	3
TAP	54	0	7
TAP	54	192	2
TAP	54	288	2
TAP	55	0	0
STR	55	0	1
SI_	55	0	1	96	48	4
TAP	55	192	5
TAP	55	288	5
STR	56	0	6
SI_	56	0	6	96	48	3
STR	56	192	2
SI_	56	192	2	96	48	7
STR	57	0	5
SI_	57	0	5	96	48	0
TAP	57	192	1
XTP	57	288	0
XTP	57	288	7
STR	58	0	3
SI_	58	0	3	96	48	1
TAP	58	96	6
STR	58	192	4
SI_	58	192	4	96	48	6
TAP	58	288	1
STR	59	0	3
SI_	59	0	3	96	48	0
TAP	59	96	7
STR	59	192	4
SI_	59	192	4	96	48	7
TAP	59	288	0
HLD	60	0	1	96
HLD	60	96	0	96
HLD	60	192	7	96
HLD	60	288	6	96
HLD	61	0	5	96
HLD	61	96	4	96
HLD	61	192	3	96
STR	61	288	2
SCL	61	288	2	96	192	5
BRK	62	288	0
BRK	62	288	7
TAP	63	0	2
TAP	63	0	3
TAP	63	96	5
TAP	63	96	6
TAP	63	192	0
TAP	63	192	1
TAP	63	288	7
HLD	63	336	7	96
HLD	64	48	0	96
HLD	64	144	1	96
HLD	64	240	2	96
TAP	64	336	3
TAP	65	0	3
TAP	65	96	0
TAP	65	96	7
TAP	65	192	4
TAP	65	192	5
TAP	65	288	6
STR	65	336	6
SI_	65	336	6	96	48	4
XST	66	48	0
SI_	66	48	0	96	48	2
XST	66	144	7
SI_	66	144	7	96	48	3
XTP	66	240	0
XTP	66	336	1
XTP	67	0	1
TAP	67	96	2
TAP	67	192	1
TAP	67	192	3
TAP	67	288	4
TAP	67	336	4
TAP	68	0	3
TAP	68	96	5
TAP	68	192	4
TAP	68	192	6
TAP	68	288	7
TAP	68	336	7
TAP	69	0	0
TAP	69	96	1
TAP	69	96	6
TAP	69	192	3
TAP	69	192	4
TAP	69	288	5
TAP	69	336	5
TAP	70	0	4
TAP	70	96	2
TAP	70	96	7
TAP	70	192	0
TAP	70	240	0
BRK	70	288	7
TAP	71	0	4
TAP	71	0	5
TAP	71	96	1
TAP	71	96	2
TAP	71	192	6
TAP	71	192	7
TAP	71	288	0
HLD	71	336	0	96
HLD	72	48	7	96
HLD	72	144	6	96
HLD	72	240	5	96
TAP	72	336	4
TAP	73	0	4
TAP	73	96	0
TAP	73	96	7
TAP	73	192	2
TAP	73	192	3
TAP	73	288	1
STR	73	336	1
SI_	73	336	1	96	48	3
XST	74	48	7
SI_	74	48	7	96	48	5
XST	74	144	0
SI_	74	144	0	96	48	4
XTP	74	240	7
XTP	74	336	6
XTP	75	0	6
TAP	75	96	5
TAP	75	96	7
TAP	75	192	4
TAP	75	240	4
TAP	75	288	3
TAP	76	0	1
TAP	76	96	0
TAP	76	96	2
TAP	76	192	3
TAP	76	240	3
STR	76	288	4
SCR	76	288	4	96	240	3
XHO	78	0	2	24
XHO	78	0	3	24
XHO	78	72	4	24
XHO	78	72	5	24
TTP	78	144	0	B	0	M1
TTP	78	144	0	C	1	M1
TTP	78	144	1	B	0	M1
TTP	78	144	6	B	0	M1
TTP	78	144	7	B	0	M1
BRK	79	96	1
BRK	79	96	6
HLD	79	192	2	96
TAP	79	288	3
TAP	79	336	3
TAP	80	48	1
TAP	80	48	4
TAP	80	144	3
STR	80	144	6
SCR	80	144	6	96	96	1
TAP	81	0	2
TAP	81	96	0
TAP	81	96	7
HLD	81	192	5	96
TAP	81	288	4
XST	81	336	4
SI_	81	336	4	96	48	1
XST	82	48	6
SI_	82	48	6	96	48	3
XST	82	144	0
SI_	82	144	0	96	48	5
TAP	83	0	6
TAP	83	0	7
TAP	83	96	1
TAP	83	96	2
TAP	83	192	4
TAP	83	192	5
TAP	83	288	3
TAP	83	336	3
TAP	84	0	4
TAP	84	96	0
TAP	84	96	1
TAP	84	192	5
TAP	84	192	6
TAP	84	288	7
TAP	84	336	7
STR	85	0	0
SCR	85	0	0	96	96	3
TAP	85	96	5
STR	85	192	7
SCL	85	192	7	96	96	4
TAP	85	288	2
STR	86	0	0
SUL	86	0	0	96	96	4
SUR	86	0	0	96	96	4
BRK	86	288	0
XTP	87	0	3
XTP	87	0	4
XTP	87	96	2
XTP	87	96	5
XTP	87	192	1
XTP	87	192	6
XTP	87	288	0
XTP	87	288	7
XTP	87	336	0
XTP	87	336	7
XTP	88	48	0
XTP	88	96	1
XTP	88	144	2
XTP	88	192	3
XTP	88	240	4
XTP	88	288	5
XTP	88	336	6
XTP	89	0	0
XTP	89	0	7
TAP	89	96	1
TAP	89	96	3
TAP	89	192	4
TAP	89	192	6
XTP	89	288	1
XTP	89	288	5
XST	89	336	1
SI_	89	336	1	96	48	5
XTP	89	336	5
TAP	90	48	7
XST	90	144	6
SI_	90	144	6	96	48	2
TAP	90	240	0
TAP	90	336	1
XHO	91	0	1	48
XHO	91	96	0	48
XHO	91	96	2	48
XTP	91	192	3
XTP	91	192	7
XTP	91	288	4
XTP	91	336	5
XHO	92	0	6	48
XHO	92	96	5	48
XHO	92	96	7	48
XTP	92	192	0
XTP	92	192	4
XST	92	288	3
SXR	92	288	3	96	288	0
XST	92	288	7
SXR	92	288	7	96	288	4
XTP	92	336	3
XTP	92	336	7
TAP	94	0	1
TAP	94	48	2
TAP	94	96	3
TAP	94	144	4
TAP	94	192	5
TAP	94	240	6
BRK	94	288	0
BRK	94	288	7

T_REC_TAP	282
T_REC_BRK	10
T_REC_XTP	76
T_REC_HLD	27
T_REC_XHO	10
T_REC_STR	30
T_REC_BST	0
T_REC_XST	16
T_REC_TTP	16
T_REC_THO	0
T_REC_SLD	47
T_REC_ALL	514
T_NUM_TAP	420
T_NUM_BRK	10
T_NUM_HLD	37
T_NUM_SLD	47
T_NUM_ALL	514
T_JUDGE_TAP	430
T_JUDGE_HLD	65
T_JUDGE_SLD	47
T_JUDGE_ALL	542
TTM_EACHPAIRS	116
TTM_SCR_TAP	210000
TTM_SCR_BRK	26000
TTM_SCR_HLD	37000
TTM_SCR_SLD	70500
TTM_SCR_ALL	343500
TTM_SCR_S	332250
TTM_SCR_SS	342500
TTM_RAT_ACV	10029

