VERSION	0.00.00	1.03.00
FES_MODE	0
BPM_DEF	187.000	187.000	187.000	187.000
MET_DEF	4	4
RESOLUTION	384
CLK_DEF	381
COMPATIBLE_CODE	MA2

BPM	0	0	187.000
MET	0	0	4	4

TAP	2	0	4
TAP	2	96	4
TAP	2	192	4
TAP	2	288	4
TAP	3	0	3
TAP	3	96	3
HLD	3	192	3	192
HLD	4	0	4	192
HLD	4	192	5	192
TAP	5	0	6
TAP	5	96	7
BRK	5	192	1
BRK	5	192	6
TAP	6	0	5
TAP	6	96	5
TAP	6	192	4
TAP	6	288	4
TAP	7	0	3
TAP	7	96	3
TAP	7	192	2
XTP	7	288	1
TAP	8	0	2
TAP	8	96	2
TAP	8	192	3
TAP	8	288	3
TAP	9	0	4
TAP	9	96	5
XTP	9	192	4
XTP	9	192	5
TAP	10	0	2
TAP	10	96	2
TAP	10	192	3
TAP	10	288	3
TAP	11	0	4
TAP	11	96	4
TAP	11	192	5
XTP	11	288	6
TAP	12	0	5
TAP	12	96	5
TAP	12	192	4
TAP	12	288	4
TAP	13	0	3
TAP	13	96	2
BRK	13	192	1
BRK	13	192	3
XTP	14	0	5
XTP	14	48	5
XTP	14	96	5
TAP	14	192	4
TAP	14	288	4
TAP	15	0	3
TAP	15	96	2
XTP	15	192	1
XTP	15	288	1
TAP	16	0	2
TAP	16	96	3
TAP	16	192	4
TAP	16	288	5
XTP	17	0	6
TAP	17	96	5
XTP	17	192	4
XTP	17	192	5
XTP	18	0	2
XTP	18	48	2
XTP	18	96	2
TAP	18	192	3
TAP	18	288	3
TAP	19	0	4
TAP	19	96	5
XTP	19	192	6
XTP	19	288	6
TAP	20	0	5
TAP	20	96	4
TAP	20	192	3
TAP	20	288	2
XTP	21	0	1
XTP	21	96	0
XTP	21	96	7
BRK	21	192	1
BRK	21	192	6
STR	22	0	0
SCR	22	0	0	96	192	3
TAP	23	0	4
TAP	23	96	4
XTP	23	192	4
STR	24	0	5
SCL	24	0	5	96	192	2
TAP	25	0	1
TAP	25	96	1
TAP	25	192	0
TAP	25	288	0
STR	26	0	7
SCL	26	0	7	96	192	4
TAP	27	0	3
TAP	27	96	3
XTP	27	192	3
STR	28	0	3
SI_	28	0	3	96	192	0
SI_	28	0	3	96	192	6
TAP	29	0	7
XTP	29	96	0
XTP	29	96	6
BRK	29	192	1
BRK	29	192	5
HLD	30	0	1	192
TAP	30	192	0
TAP	30	288	0
TAP	31	0	7
TAP	31	96	6
XTP	31	192	6
XTP	31	192	7
HLD	32	0	6	192
TAP	32	192	7
TAP	32	288	7
TAP	33	0	0
TAP	33	96	1
XTP	33	192	0
XTP	33	192	1
HLD	34	0	2	192
TAP	34	192	3
TAP	34	288	4
HLD	35	0	5	192
TAP	35	192	4
TAP	35	288	3
HLD	36	0	3	192
HLD	36	0	4	192
XTP	37	0	3
XTP	37	0	4
XTP	37	96	3
XTP	37	96	4
XTP	37	192	2
XTP	37	192	5
HLD	38	0	5	192
TAP	38	192	4
TAP	38	288	4
TAP	39	0	3
TAP	39	96	2
XTP	39	192	2
XTP	39	192	3
HLD	40	0	2	192
TAP	40	192	3
TAP	40	288	3
TAP	41	0	4
TAP	41	96	5
XTP	41	192	4
XTP	41	192	5
HLD	42	0	6	192
TAP	42	192	7
TAP	42	288	0
HLD	43	0	1	192
TAP	43	192	0
TAP	43	288	7
HLD	44	0	0	192
HLD	44	0	7	192
XTP	45	0	0
XTP	45	0	7
BRK	45	96	1
BRK	45	96	6
TTP	46	0	1	B	0	L1
TTP	46	192	0	C	0	L1
TTP	47	0	5	B	0	L1
TTP	48	0	6	B	0	L1
TTP	48	192	0	C	0	L1
TTP	49	0	2	B	0	L1
TTP	50	0	4	E	0	L1
TTP	50	192	3	E	0	L1
TTP	51	0	2	E	0	L1
TTP	51	192	1	E	0	L1
TTP	52	0	0	E	0	L1
TTP	52	192	7	E	0	L1
TTP	53	0	0	C	0	L1
TTP	54	0	0	E	0	L1
TTP	54	192	7	E	0	L1
TTP	55	0	6	E	0	L1
TTP	55	192	5	E	0	L1
TTP	56	0	4	E	0	L1
TTP	56	192	3	E	0	L1
TTP	57	0	0	C	0	L1
TTP	58	0	7	E	0	L1
TTP	58	96	7	B	0	L1
TTP	58	192	0	B	0	L1
TTP	59	0	2	E	0	L1
TTP	59	96	2	B	0	L1
TTP	59	192	3	B	0	L1
TTP	60	0	5	E	0	L1
TTP	60	96	5	B	0	L1
TTP	60	192	6	B	0	L1
THO	61	0	0	384	C	1	L1
TAP	63	0	1
TAP	63	96	0
TAP	63	96	1
TAP	63	192	7
TAP	63	288	0
TAP	63	288	7
TAP	64	0	6
TAP	64	96	5
XTP	64	192	4
XTP	64	192	6
TAP	65	0	5
TAP	65	96	6
TAP	65	192	7
TAP	65	288	0
STR	66	0	1
SCR	66	0	1	96	192	4
TAP	67	0	5
TAP	67	96	4
TAP	67	192	3
XTP	67	288	2
XTP	67	288	3
TAP	68	0	1
TAP	68	96	0
TAP	68	192	7
XTP	68	288	6
XTP	68	288	7
TAP	69	0	0
TAP	69	96	1
TAP	69	192	2
TAP	69	288	3
XTP	70	0	4
XTP	70	0	5
XTP	70	96	3
XTP	70	96	6
BRK	70	192	2
BRK	70	192	7
TAP	71	0	6
TAP	71	96	6
TAP	71	96	7
TAP	71	192	0
TAP	71	288	0
TAP	71	288	7
TAP	72	0	1
TAP	72	96	2
XTP	72	192	1
XTP	72	192	3
TAP	73	0	2
TAP	73	96	1
TAP	73	192	0
TAP	73	288	7
STR	74	0	6
SCL	74	0	6	96	192	3
TAP	75	0	2
TAP	75	96	3
TAP	75	192	4
XTP	75	288	4
XTP	75	288	5
TAP	76	0	6
TAP	76	96	7
TAP	76	192	0
XTP	76	288	0
XTP	76	288	1
TAP	77	0	7
TAP	77	96	6
TAP	77	192	5
TAP	77	288	4
XTP	78	0	2
XTP	78	0	3
XST	78	96	2
SI_	78	96	2	96	144	0
XST	78	96	3
SI_	78	96	3	96	144	5
XTP	79	96	6
XTP	79	96	7
TAP	79	192	1
TAP	79	288	0
TAP	79	288	1
TAP	80	0	2
TAP	80	96	2
TAP	80	96	3
BRK	80	192	1
BRK	80	192	4
TAP	81	0	3
TAP	81	96	2
HLD	81	192	1	96
TAP	81	288	0
TAP	81	336	0
XTP	82	48	6
XTP	82	48	7
XTP	82	144	0
XTP	82	144	5
XTP	82	240	1
XTP	82	240	4
TAP	82	336	2
TAP	83	0	2
TAP	83	96	3
TAP	83	192	4
TAP	83	288	4
TAP	83	288	5
TAP	84	0	6
TAP	84	96	7
TAP	84	192	0
TAP	84	288	0
TAP	84	288	1
TAP	85	0	2
TAP	85	96	1
TAP	85	192	0
TAP	85	288	6
TAP	85	288	7
XTP	86	0	4
XTP	86	0	5
XTP	86	96	3
XTP	86	96	6
BRK	86	192	2
BRK	86	192	7
TAP	87	0	1
TAP	87	96	0
TAP	87	96	1
TAP	87	192	6
TAP	87	288	6
TAP	87	288	7
TAP	88	0	5
TAP	88	96	4
TAP	88	96	5
BRK	88	192	3
BRK	88	192	6
TAP	89	0	4
TAP	89	96	5
HLD	89	192	6	96
TAP	89	288	7
TAP	89	336	7
XTP	90	48	0
XTP	90	48	1
XTP	90	144	2
XTP	90	144	7
XTP	90	240	3
XTP	90	240	6
TAP	90	336	5
TAP	91	0	5
TAP	91	96	4
TAP	91	192	3
TAP	91	288	2
TAP	91	288	3
TAP	92	0	1
TAP	92	96	0
TAP	92	192	7
TAP	92	288	6
XTP	93	0	7
XTP	93	48	7
XTP	93	96	7
XTP	93	192	0
XTP	93	240	0
XTP	93	288	0
XTP	94	0	0
XTP	94	0	7
XTP	94	48	0
XTP	94	48	7
XTP	94	96	0
XTP	94	96	7
XTP	94	192	1
XTP	94	192	6
XTP	94	240	1
XTP	94	240	6
XTP	94	288	1
XTP	94	288	6
BRK	94	336	1
BRK	94	336	6

T_REC_TAP	177
T_REC_BRK	20
T_REC_XTP	94
T_REC_HLD	17
T_REC_XHO	0
T_REC_STR	6
T_REC_BST	0
T_REC_XST	2
T_REC_TTP	29
T_REC_THO	1
T_REC_SLD	9
T_REC_ALL	355
T_NUM_TAP	308
T_NUM_BRK	20
T_NUM_HLD	18
T_NUM_SLD	9
T_NUM_ALL	355
T_JUDGE_TAP	328
T_JUDGE_HLD	72
T_JUDGE_SLD	9
T_JUDGE_ALL	409
TTM_EACHPAIRS	62
TTM_SCR_TAP	154000
TTM_SCR_BRK	52000
TTM_SCR_HLD	18000
TTM_SCR_SLD	13500
TTM_SCR_ALL	237500
TTM_SCR_S	228450
TTM_SCR_SS	235500
TTM_RAT_ACV	10084

