VERSION	0.00.00	1.03.00
FES_MODE	0
BPM_DEF	187.000	187.000	187.000	187.000
MET_DEF	4	4
RESOLUTION	384
CLK_DEF	384
COMPATIBLE_CODE	MA2

BPM	0	0	187.000
MET	0	0	4	4

TAP	6	0	0
TAP	7	0	0
HLD	8	0	0	384
TAP	10	0	7
TAP	11	0	7
HLD	12	0	7	384
TAP	14	0	0
TAP	14	192	0
TAP	15	0	0
HLD	16	0	1	384
TAP	18	0	7
TAP	18	192	7
TAP	19	0	7
HLD	20	0	6	384
TAP	22	0	0
TAP	22	192	0
TAP	23	0	1
TAP	23	192	1
TAP	24	0	2
TAP	24	192	2
TAP	25	0	3
TAP	25	0	4
TAP	26	0	4
TAP	26	192	4
TAP	27	0	5
TAP	27	192	5
TAP	28	0	6
TAP	28	192	6
BRK	29	0	0
BRK	29	0	7
STR	30	0	7
SI_	30	0	7	96	288	4
STR	32	0	0
SI_	32	0	0	96	288	3
STR	34	0	7
SI_	34	0	7	96	288	3
HLD	36	0	0	384
TAP	38	0	7
TAP	38	192	7
TAP	39	0	6
TAP	39	192	6
TAP	40	0	5
TAP	40	96	5
TAP	40	192	5
HLD	41	0	3	192
HLD	41	0	4	192
TAP	42	0	3
TAP	42	192	3
TAP	43	0	2
TAP	43	192	2
HLD	44	0	1	192
HLD	45	0	0	192
HLD	45	0	7	192
TTP	46	0	0	B	0	L1
TTP	47	0	1	B	0	L1
TTP	48	0	2	B	0	L1
TTP	49	0	3	B	0	L1
TTP	49	0	4	B	0	L1
TTP	50	0	5	B	0	L1
TTP	51	0	6	B	0	L1
TTP	52	0	7	B	0	L1
TTP	53	0	1	B	0	L1
TTP	53	0	6	B	0	L1
TTP	54	0	3	B	0	L1
TTP	54	0	4	B	0	L1
TTP	55	0	2	E	0	L1
TTP	55	0	3	E	0	L1
TTP	56	0	3	B	0	L1
TTP	56	0	4	B	0	L1
TTP	57	0	5	E	0	L1
TTP	57	0	6	E	0	L1
THO	58	0	0	1536	C	1	L1
TAP	63	0	7
TAP	63	96	7
TAP	63	192	7
TAP	64	0	6
TAP	64	96	6
TAP	64	192	6
TAP	65	0	5
TAP	65	96	5
TAP	65	192	5
XTP	66	0	4
XTP	66	0	5
TAP	67	0	3
TAP	67	96	3
TAP	67	192	3
TAP	68	0	2
TAP	68	96	2
TAP	68	192	2
TAP	69	0	1
TAP	69	96	1
TAP	69	192	1
XTP	70	0	0
XTP	70	0	1
TAP	71	0	0
TAP	71	96	0
TAP	71	192	0
TAP	72	0	1
TAP	72	96	1
TAP	72	192	1
TAP	73	0	2
TAP	73	96	2
TAP	73	192	2
XTP	74	0	2
XTP	74	0	3
TAP	75	0	4
TAP	75	96	4
TAP	75	192	4
TAP	76	0	5
TAP	76	96	5
TAP	76	192	5
TAP	77	0	6
TAP	77	0	7
STR	78	0	0
SI_	78	0	0	96	288	4
TAP	80	0	5
TAP	80	96	5
TAP	80	192	5
TAP	81	0	4
TAP	81	96	4
TAP	81	192	4
TAP	82	0	3
TAP	82	96	3
TAP	82	192	3
TAP	83	0	2
TAP	83	96	2
TAP	83	192	2
TAP	83	192	3
TAP	84	0	5
TAP	84	96	5
TAP	84	192	4
TAP	84	192	5
TAP	85	0	3
TAP	85	96	3
TAP	85	192	2
TAP	85	288	2
HLD	86	0	2	192
HLD	86	0	3	192
TAP	87	0	1
TAP	87	96	1
TAP	87	192	1
TAP	88	0	0
TAP	88	96	0
TAP	88	192	0
TAP	89	0	7
TAP	89	96	7
TAP	89	192	7
TAP	90	0	6
TAP	90	96	6
TAP	90	192	6
TAP	91	0	5
TAP	91	96	5
TAP	91	192	4
TAP	91	192	5
TAP	92	0	2
TAP	92	96	2
TAP	92	192	2
TAP	92	192	3
HLD	93	0	3	192
HLD	93	0	4	192
STR	94	0	3
SI_	94	0	3	96	288	0
STR	94	0	4
SI_	94	0	4	96	288	7

T_REC_TAP	111
T_REC_BRK	2
T_REC_XTP	6
T_REC_HLD	14
T_REC_XHO	0
T_REC_STR	6
T_REC_BST	0
T_REC_XST	0
T_REC_TTP	18
T_REC_THO	1
T_REC_SLD	6
T_REC_ALL	164
T_NUM_TAP	141
T_NUM_BRK	2
T_NUM_HLD	15
T_NUM_SLD	6
T_NUM_ALL	164
T_JUDGE_TAP	143
T_JUDGE_HLD	108
T_JUDGE_SLD	6
T_JUDGE_ALL	257
TTM_EACHPAIRS	15
TTM_SCR_TAP	70500
TTM_SCR_BRK	5200
TTM_SCR_HLD	15000
TTM_SCR_SLD	9000
TTM_SCR_ALL	99700
TTM_SCR_S	96550
TTM_SCR_SS	99500
TTM_RAT_ACV	10020

