VERSION	0.00.00	1.03.00
FES_MODE	0
BPM_DEF	185.000	185.000	185.000	185.000
MET_DEF	4	4
RESOLUTION	384
CLK_DEF	384
COMPATIBLE_CODE	MA2

BPM	0	0	185.000
MET	0	0	4	4
CLK	0	0
CLK	0	96
CLK	0	192
CLK	0	288

STR	1	0	0
SI_	1	0	0	96	48	5
TAP	1	48	6
TAP	1	96	0
STR	1	192	7
SI_	1	192	7	96	48	2
TAP	1	240	1
TAP	1	288	7
STR	2	0	1
SI_	2	0	1	96	48	4
TAP	2	48	7
TAP	2	96	1
STR	2	192	6
SI_	2	192	6	96	48	3
TAP	2	240	0
TAP	2	288	6
STR	3	0	0
SI_	3	0	0	96	48	4
TAP	3	48	7
TAP	3	96	0
STR	3	192	7
SI_	3	192	7	96	48	3
TAP	3	240	0
TAP	3	288	7
TAP	4	0	1
TAP	4	48	1
TAP	4	96	7
TAP	4	120	0
TAP	4	168	7
TAP	4	192	0
TAP	4	240	7
TAP	4	288	0
TAP	4	288	6
STR	5	0	6
SUL	5	0	6	96	48	2
TAP	5	48	0
TAP	5	96	6
STR	5	192	1
SUR	5	192	1	96	48	5
TAP	5	240	7
TAP	5	288	1
STR	6	0	7
SUL	6	0	7	96	48	2
TAP	6	48	1
TAP	6	96	7
STR	6	192	0
SUR	6	192	0	96	48	5
TAP	6	240	6
TAP	6	288	0
STR	7	0	4
SUR	7	0	4	96	48	0
TAP	7	48	3
TAP	7	96	4
TAP	7	192	2
TAP	7	240	4
STR	7	288	5
SI_	7	288	5	96	48	1
TAP	7	336	5
STR	8	0	3
SI_	8	0	3	96	48	6
STR	8	96	5
SI_	8	96	5	96	48	0
STR	8	192	3
SI_	8	192	3	96	48	7
TAP	8	288	5
BRK	9	0	0
TAP	9	48	0
TAP	9	144	1
TAP	9	240	2
TAP	9	336	3
TAP	10	48	4
TAP	10	144	5
TAP	10	240	6
TAP	10	336	7
TAP	11	48	0
TTP	11	48	4	B	0	M1
TAP	11	144	1
TTP	11	144	5	B	0	M1
TAP	11	240	2
TTP	11	240	6	B	0	M1
TAP	11	336	3
TTP	11	336	7	B	0	M1
TTP	12	48	0	B	0	M1
TAP	12	48	4
TTP	12	144	1	B	0	M1
TAP	12	144	5
TTP	12	240	2	B	0	M1
TAP	12	240	6
TTP	12	336	3	B	0	M1
TAP	12	336	7
TAP	13	48	0
TTP	13	48	0	C	0	M1
TTP	13	144	0	C	0	M1
TAP	13	144	1
TTP	13	240	0	C	0	M1
TAP	13	240	2
TTP	13	336	0	C	0	M1
TAP	13	336	3
TTP	14	48	0	C	0	M1
TAP	14	48	4
TTP	14	144	0	C	0	M1
TAP	14	144	5
TTP	14	240	0	C	0	M1
TAP	14	240	6
TTP	14	336	0	C	0	M1
TAP	14	336	7
TAP	15	48	0
TTP	15	48	0	C	1	M1
TTP	15	144	0	C	1	M1
TAP	15	144	1
TTP	15	240	0	C	1	M1
TAP	15	240	2
TTP	15	336	0	C	1	M1
TAP	15	336	3
TTP	16	48	0	C	1	M1
TAP	16	48	4
TTP	16	144	0	C	0	M1
TAP	16	144	5
BRK	16	192	6
STR	17	0	1
SI_	17	0	1	96	48	3
STR	17	0	7
SI_	17	0	7	96	48	5
TAP	17	48	1
TAP	17	48	7
STR	17	192	0
SI_	17	192	0	96	48	2
STR	17	192	6
SI_	17	192	6	96	48	4
TAP	17	240	0
TAP	17	240	6
STR	18	0	1
SI_	18	0	1	96	48	3
STR	18	0	7
SI_	18	0	7	96	48	5
TAP	18	48	1
TAP	18	48	7
STR	18	192	0
SI_	18	192	0	96	48	2
STR	18	192	6
SI_	18	192	6	96	48	4
TAP	18	240	0
TAP	18	240	6
STR	19	0	1
SI_	19	0	1	96	48	3
STR	19	0	6
SI_	19	0	6	96	48	4
TAP	19	48	1
TAP	19	48	6
STR	19	192	0
SI_	19	192	0	96	48	2
STR	19	192	7
SI_	19	192	7	96	48	5
TAP	19	240	0
TAP	19	240	7
TAP	20	0	7
TAP	20	48	7
TAP	20	96	0
TAP	20	120	7
TAP	20	168	0
TAP	20	192	7
TAP	20	240	0
TAP	20	288	1
TAP	20	288	6
STR	21	0	1
SI_	21	0	1	96	48	3
STR	21	0	7
SI_	21	0	7	96	48	5
TAP	21	48	0
STR	21	192	0
SI_	21	192	0	96	48	2
STR	21	192	6
SI_	21	192	6	96	48	4
TAP	21	240	7
STR	22	0	1
SI_	22	0	1	96	48	3
STR	22	0	7
SI_	22	0	7	96	48	5
TAP	22	48	0
STR	22	192	0
SI_	22	192	0	96	48	2
STR	22	192	6
SI_	22	192	6	96	48	4
TAP	22	240	7
STR	23	0	0
SI_	23	0	0	96	48	2
STR	23	0	7
SI_	23	0	7	96	48	5
TAP	23	48	1
TAP	23	48	6
TAP	23	192	0
TAP	23	192	6
TAP	23	240	0
TAP	23	288	7
TAP	23	312	0
TAP	23	360	7
XTP	24	0	0
XTP	24	96	1
XTP	24	192	0
XTP	24	288	1
STR	25	0	4
SI_	25	0	4	96	48	0
TAP	25	48	3
TAP	25	96	4
TAP	25	192	1
TAP	25	264	0
TAP	25	336	7
STR	26	0	0
SI_	26	0	0	96	48	3
TAP	26	48	7
TAP	26	72	7
TAP	26	96	0
TAP	26	192	4
TAP	26	264	2
TAP	26	336	3
STR	27	0	3
SI_	27	0	3	96	48	7
TAP	27	48	4
TAP	27	96	3
TAP	27	192	6
TAP	27	264	7
TAP	27	336	0
STR	28	0	7
SI_	28	0	7	96	48	4
TAP	28	48	0
TAP	28	72	0
TAP	28	96	7
TAP	28	192	3
TAP	28	264	5
TAP	28	336	4
STR	29	0	4
SI_	29	0	4	96	48	0
TAP	29	48	3
TAP	29	96	4
TTP	29	192	1	B	0	M1
TTP	29	264	2	B	0	M1
TTP	29	336	3	B	0	M1
STR	30	0	0
SI_	30	0	0	96	48	3
TAP	30	48	7
TAP	30	72	7
TAP	30	96	0
TTP	30	192	4	B	0	M1
TTP	30	264	5	B	0	M1
TTP	30	336	6	B	0	M1
STR	31	0	3
SI_	31	0	3	96	48	7
TAP	31	48	4
TAP	31	96	3
TTP	31	192	6	B	0	M1
TTP	31	264	5	B	0	M1
TTP	31	336	4	B	0	M1
XTP	32	0	0
TAP	32	48	6
XTP	32	96	1
TAP	32	144	6
XTP	32	192	0
TAP	32	240	7
XTP	32	288	1
TAP	32	336	7
TAP	33	0	1
TAP	33	48	6
STR	33	96	0
SI_	33	96	0	96	48	2
STR	33	192	0
SI_	33	192	0	96	24	6
TAP	33	264	0
TAP	33	336	1
TAP	34	0	5
TAP	34	48	3
TAP	34	72	4
STR	34	96	3
SI_	34	96	3	96	48	1
STR	34	192	3
SI_	34	192	3	96	24	5
TAP	34	264	3
TAP	34	336	2
TAP	35	0	6
TAP	35	48	1
STR	35	96	7
SI_	35	96	7	96	48	5
STR	35	192	7
SI_	35	192	7	96	24	1
TAP	35	264	7
TAP	35	336	6
TAP	36	0	2
TAP	36	48	4
TAP	36	72	3
STR	36	96	4
SI_	36	96	4	96	48	6
STR	36	192	4
SI_	36	192	4	96	24	2
TAP	36	264	4
TAP	36	336	5
TAP	37	0	1
TAP	37	48	6
STR	37	96	0
SCR	37	96	0	96	48	2
STR	37	192	0
SCL	37	192	0	96	24	6
STR	37	264	0
SI_	37	264	0	96	24	4
TAP	37	336	0
TAP	38	0	5
TAP	38	48	3
TAP	38	72	4
STR	38	96	3
SCL	38	96	3	96	48	1
STR	38	192	3
SCR	38	192	3	96	24	5
STR	38	264	3
SI_	38	264	3	96	24	7
TAP	38	336	3
TAP	39	0	6
TAP	39	48	1
STR	39	96	7
SI_	39	96	7	96	48	5
STR	39	192	7
SI_	39	192	7	96	24	1
STR	39	264	7
SI_	39	264	7	96	24	3
TAP	39	336	7
XTP	40	0	0
TAP	40	48	4
XTP	40	96	1
TAP	40	144	5
XTP	40	192	0
TAP	40	240	6
XTP	40	288	1
TAP	40	336	7
XTP	41	0	0
TTP	41	0	0	C	1	M1
TAP	41	192	1
TAP	42	0	2
TTP	42	96	5	B	0	M1
TTP	42	192	6	B	0	M1
TTP	42	288	7	B	0	M1
TAP	43	0	0
TAP	43	192	1
TAP	44	0	2
TTP	44	96	0	B	0	M1
TTP	44	192	1	B	0	M1
TTP	44	288	2	B	0	M1
XTP	45	0	0
XTP	45	192	1
XTP	46	0	2
TTP	46	96	3	B	0	M1
TTP	46	96	7	B	0	M1
TTP	46	192	2	B	0	M1
TTP	46	192	6	B	0	M1
TTP	46	288	1	B	0	M1
TTP	46	288	5	B	0	M1
XTP	47	0	0
XTP	47	192	1
XTP	48	0	2
TTP	48	96	3	B	0	M1
TTP	48	96	7	B	0	M1
TTP	48	192	2	B	0	M1
TTP	48	192	6	B	0	M1
TTP	48	288	1	B	0	M1
TTP	48	288	5	B	0	M1
BRK	49	0	7
TAP	49	48	3
TAP	49	96	5
TAP	49	192	3
TAP	49	240	4
TAP	49	264	3
TAP	49	312	4
TAP	49	336	3
TAP	50	0	4
TAP	50	48	2
TAP	50	96	4
TAP	50	192	2
TAP	50	240	3
TAP	50	264	2
TAP	50	312	3
TAP	50	336	2
TAP	51	0	5
TAP	51	48	3
TAP	51	96	5
TAP	51	192	3
TAP	51	240	4
TAP	51	264	3
TAP	51	312	4
TAP	51	336	3
TAP	52	0	4
TAP	52	48	2
TAP	52	96	4
TAP	52	192	3
TAP	52	240	4
TAP	52	264	3
TAP	52	312	4
TAP	52	336	3
BRK	53	0	0
TAP	53	48	4
TAP	53	96	2
TAP	53	192	4
TAP	53	240	3
TAP	53	264	4
TAP	53	312	3
TAP	53	336	4
TAP	54	0	3
TAP	54	48	5
TAP	54	96	3
TAP	54	192	5
TAP	54	240	4
TAP	54	264	5
TAP	54	312	4
TAP	54	336	5
TAP	55	0	1
TAP	55	48	4
TAP	55	96	1
TAP	55	192	5
TAP	55	240	2
TAP	55	264	5
TAP	55	312	2
TAP	55	336	5
TAP	56	0	1
TAP	56	48	7
TAP	56	96	1
TAP	56	192	6
TAP	56	240	1
TAP	56	264	6
TAP	56	312	1
TAP	56	336	6
XST	57	0	0
SI_	57	0	0	96	48	4
XST	57	96	4
SF_	57	96	4	96	48	0
TTP	57	216	0	C	1	M1
TAP	58	0	6
XTP	58	48	0
XTP	58	48	7
TAP	58	96	1
XTP	58	144	0
XTP	58	144	7
TAP	58	192	6
XTP	58	240	0
XTP	58	240	7
TAP	58	288	1
XTP	58	336	0
XTP	58	336	7
TAP	59	0	5
XTP	59	48	0
XTP	59	48	7
TAP	59	96	2
XTP	59	144	0
XTP	59	144	7
TAP	59	192	5
XTP	59	240	0
XTP	59	240	7
XTP	59	288	1
XTP	59	288	6
TAP	60	0	2
TAP	60	48	2
TAP	60	96	7
TAP	60	144	7
TAP	60	192	0
TAP	60	192	1
XTP	60	240	7
XTP	60	256	6
XTP	60	272	5
STR	60	288	1
SI_	60	288	1	96	48	3
XTP	60	288	4
TAP	60	336	1
STR	61	0	7
SI_	61	0	7	96	24	5
TAP	61	48	7
STR	61	96	0
SI_	61	96	0	96	48	4
TAP	61	144	0
TAP	61	192	6
TAP	61	240	6
XTP	61	288	6
TAP	62	0	0
XTP	62	48	6
XTP	62	48	7
TAP	62	96	5
XTP	62	144	6
XTP	62	144	7
TAP	62	192	0
XTP	62	240	6
XTP	62	240	7
TAP	62	288	5
XTP	62	336	6
XTP	62	336	7
TAP	63	0	3
XTP	63	48	0
XTP	63	48	1
TAP	63	96	6
XTP	63	144	0
XTP	63	144	1
TAP	63	192	3
XTP	63	240	0
XTP	63	240	1
XTP	63	288	2
XTP	63	288	7
TAP	64	0	0
TAP	64	48	0
TAP	64	96	1
STR	64	144	1
SCR	64	144	1	96	48	4
TAP	64	192	0
TAP	64	192	1
TTP	64	240	0	E	0	M1
TTP	64	256	7	B	0	M1
TTP	64	272	6	B	0	M1
TTP	64	288	6	E	0	M1
TAP	65	0	6
XTP	65	48	6
XTP	65	48	7
TAP	65	96	1
XTP	65	144	0
XTP	65	144	1
TAP	65	192	6
XTP	65	240	6
XTP	65	240	7
XTP	65	288	0
XTP	65	288	5
STR	66	0	3
SUL	66	0	3	96	48	7
TAP	66	48	3
STR	66	96	4
SUR	66	96	4	96	48	1
TAP	66	144	4
STR	66	192	2
SCL	66	192	2	96	48	7
TAP	66	240	2
STR	66	288	5
SUR	66	288	5	96	48	1
TAP	66	336	5
STR	67	0	3
SUL	67	0	3	96	48	6
TAP	67	48	3
STR	67	96	4
SCR	67	96	4	96	48	0
TAP	67	144	4
STR	67	192	2
SUL	67	192	2	96	48	6
TAP	67	240	2
TAP	68	0	5
TAP	68	48	5
TAP	68	96	0
TAP	68	144	0
TAP	68	192	6
TAP	68	192	7
XTP	68	240	0
XTP	68	256	1
XTP	68	272	2
XTP	68	288	3
STR	68	288	6
SI_	68	288	6	96	48	4
TAP	68	336	6
STR	69	0	0
SI_	69	0	0	96	24	2
TAP	69	48	0
STR	69	96	7
SI_	69	96	7	96	48	3
TAP	69	144	7
TAP	69	192	1
TAP	69	240	1
XTP	69	288	1
STR	70	0	4
SUR	70	0	4	96	48	0
TAP	70	48	4
STR	70	96	3
SUL	70	96	3	96	48	6
TAP	70	144	3
STR	70	192	5
SCR	70	192	5	96	48	0
TAP	70	240	5
STR	70	288	2
SUL	70	288	2	96	48	6
TAP	70	336	2
STR	71	0	4
SUR	71	0	4	96	48	1
TAP	71	48	4
STR	71	96	3
SCL	71	96	3	96	48	7
TAP	71	144	3
STR	71	192	5
SUR	71	192	5	96	48	1
TAP	71	240	5
TAP	72	0	7
TAP	72	48	7
TAP	72	96	6
STR	72	144	6
SCL	72	144	6	96	48	3
TAP	72	192	6
TAP	72	192	7
TTP	72	240	0	E	0	M1
TTP	72	256	0	B	0	M1
TTP	72	272	1	B	0	M1
TTP	72	288	2	E	0	M1
TAP	73	0	0
HLD	73	0	5	384
TAP	73	96	1
TAP	73	144	1
TAP	73	240	0
TAP	73	336	0
STR	74	0	0
SCL	74	0	0	96	672	0
HLD	78	0	0	192
TTP	78	0	4	B	0	M1
HLD	79	0	1	192
TTP	79	0	5	B	0	M1
HLD	80	0	2	192
TTP	80	0	6	B	0	M1
HLD	81	0	3	192
TTP	81	0	7	B	0	M1
BRK	82	0	5
TAP	82	48	4
TAP	82	96	5
TAP	82	120	4
TAP	82	192	3
TAP	82	240	3
TAP	82	264	3
TAP	82	312	5
TAP	82	336	5
TAP	83	0	2
TAP	83	48	3
TAP	83	96	2
TAP	83	120	3
TAP	83	192	4
TAP	83	240	4
TAP	83	264	4
TAP	83	312	2
TAP	83	336	2
TAP	84	0	5
TAP	84	48	3
TAP	84	96	5
TAP	84	120	3
TAP	84	192	2
TAP	84	240	2
TAP	84	264	2
TAP	84	312	5
TAP	84	336	5
TAP	85	0	2
TAP	85	48	4
TAP	85	96	2
TAP	85	120	4
TAP	85	192	5
TAP	85	240	5
TAP	85	264	5
TAP	85	312	2
XTP	85	336	2
XTP	86	0	5
TAP	86	48	4
TAP	86	96	5
TAP	86	120	4
TAP	86	192	3
TAP	86	240	3
TAP	86	264	3
TAP	86	312	5
TAP	86	336	5
TAP	87	0	2
TAP	87	48	3
TAP	87	96	2
TAP	87	120	3
TAP	87	192	4
TAP	87	240	4
TAP	87	264	4
TAP	87	312	2
TAP	87	336	2
XTP	88	0	5
TAP	88	48	3
TAP	88	96	5
TAP	88	120	3
TAP	88	192	2
TAP	88	240	2
TAP	88	264	2
TAP	88	312	5
TAP	88	336	5
XTP	89	0	1
TAP	89	48	6
TAP	89	96	1
TAP	89	120	6
XTP	89	192	7
TAP	89	240	7
TAP	89	264	7
TAP	89	312	0
TAP	89	336	0
XTP	90	0	0
TAP	90	48	1
XTP	90	96	7
TAP	90	144	6
XTP	90	192	0
XTP	90	192	1
TAP	90	240	1
XTP	90	288	6
XTP	90	288	7
TAP	90	336	6
HLD	91	0	1	96
TAP	91	96	7
HLD	91	144	7	96
HLD	91	240	0	96
HLD	91	336	7	96
TAP	92	48	1
TAP	92	96	0
TAP	92	144	7
HLD	92	192	0	96
TAP	92	288	6
TAP	92	336	6
TAP	93	0	2
TAP	93	48	2
TAP	93	96	7
TAP	93	144	7
TAP	93	192	0
TAP	93	192	1
XTP	93	240	7
XTP	93	256	6
XTP	93	272	5
TAP	93	288	1
XTP	93	288	4
STR	94	0	1
SI_	94	0	1	96	48	4
TAP	94	48	1
TAP	94	96	0
STR	94	192	6
SI_	94	192	6	96	48	3
TAP	94	240	6
TAP	94	288	7
BRK	95	0	0
BRK	95	0	1
TAP	95	96	7
HLD	95	144	7	96
TAP	95	240	0
BRK	95	336	6
BRK	95	336	7
TAP	96	48	1
TAP	96	96	0
TAP	96	144	7
BRK	96	192	0
BRK	96	192	1
BRK	96	288	6
BRK	96	288	7
BRK	97	0	3
BRK	97	0	4
TAP	97	48	2
TAP	97	96	5
TAP	97	144	0
BRK	97	192	0
BRK	97	192	7
XTP	97	240	0
XTP	97	240	7
XTP	97	256	1
XTP	97	256	6
XTP	97	272	2
XTP	97	272	5
XTP	97	288	3
XTP	97	288	4
TAP	98	0	3
TAP	98	24	4
TAP	98	48	3
TAP	98	72	4
TAP	98	96	2
TAP	98	120	5
TAP	98	144	2
TAP	98	168	5
XTP	98	192	1
XTP	98	204	0
XTP	98	216	7
XTP	98	228	6
XTP	98	240	5
XTP	98	252	4
XTP	98	264	3
XTP	98	276	2
BRK	98	288	0
BRK	98	288	1
HLD	99	0	6	96
BRK	99	48	0
HLD	99	96	2	96
BRK	99	144	0
HLD	99	192	6	96
BRK	99	240	0
HLD	99	288	2	96
BRK	99	336	0
HLD	100	0	5	96
BRK	100	48	0
HLD	100	96	3	96
BRK	100	144	0
HLD	100	192	5	96
BRK	100	240	0
TTP	100	288	0	C	1	M1
TAP	101	0	1
TAP	101	48	1
TAP	101	96	4
TAP	101	144	4
XTP	101	192	2
XTP	101	192	3
XTP	101	240	2
XTP	101	240	3
XTP	101	256	1
XTP	101	256	4
XTP	101	272	0
XTP	101	272	5
XTP	101	288	6
XST	101	288	7
SI_	101	288	7	96	48	3
STR	102	0	2
SI_	102	0	2	96	48	7
TAP	102	48	2
STR	102	96	6
SI_	102	96	6	96	48	4
TAP	102	144	6
STR	102	192	3
SI_	102	192	3	96	48	7
TAP	102	240	3
XTP	102	288	5
HLD	103	0	5	96
BRK	103	48	7
HLD	103	96	1	96
BRK	103	144	7
HLD	103	192	5	96
BRK	103	240	7
HLD	103	288	1	96
BRK	103	336	7
HLD	104	0	4	96
BRK	104	48	7
HLD	104	96	2	96
BRK	104	144	7
HLD	104	192	4	96
BRK	104	240	7
TTP	104	288	0	C	1	M1
TAP	105	0	6
TAP	105	48	6
TAP	105	96	3
TAP	105	144	3
XTP	105	192	4
XTP	105	192	5
XTP	105	240	4
XTP	105	240	5
XTP	105	256	3
XTP	105	256	6
XTP	105	272	2
XTP	105	272	7
XST	105	288	0
SI_	105	288	0	96	48	4
XTP	105	288	1
STR	106	0	5
SI_	106	0	5	96	48	0
TAP	106	48	5
STR	106	96	1
SI_	106	96	1	96	48	3
TAP	106	144	1
STR	106	192	4
SI_	106	192	4	96	48	0
TAP	106	240	4
TAP	106	288	2
TAP	106	336	2
XST	107	0	7
SI_	107	0	7	96	48	3
XST	107	96	3
SF_	107	96	3	96	48	7
TTP	107	216	0	C	1	M1
XTP	107	288	0
XTP	107	288	4
XTP	107	312	1
XTP	107	312	5
XTP	107	336	2
XTP	107	336	6
XTP	107	360	3
XTP	107	360	7
XTP	108	0	0
XTP	108	0	4

T_REC_TAP	417
T_REC_BRK	33
T_REC_XTP	129
T_REC_HLD	25
T_REC_XHO	0
T_REC_STR	92
T_REC_BST	0
T_REC_XST	6
T_REC_TTP	66
T_REC_THO	0
T_REC_SLD	98
T_REC_ALL	866
T_NUM_TAP	710
T_NUM_BRK	33
T_NUM_HLD	25
T_NUM_SLD	98
T_NUM_ALL	866
T_JUDGE_TAP	743
T_JUDGE_HLD	64
T_JUDGE_SLD	98
T_JUDGE_ALL	905
TTM_EACHPAIRS	78
TTM_SCR_TAP	355000
TTM_SCR_BRK	85800
TTM_SCR_HLD	25000
TTM_SCR_SLD	147000
TTM_SCR_ALL	612800
TTM_SCR_S	591250
TTM_SCR_SS	609500
TTM_RAT_ACV	10054

