VERSION	0.00.00	1.03.00
FES_MODE	0
BPM_DEF	185.000	185.000	185.000	185.000
MET_DEF	4	4
RESOLUTION	384
CLK_DEF	384
COMPATIBLE_CODE	MA2

BPM	0	0	185.000
MET	0	0	4	4

TTP	1	0	1	E	0	M1
TTP	1	96	7	E	0	M1
TTP	1	192	1	B	0	M1
TTP	1	288	6	B	0	M1
TTP	2	0	2	B	0	M1
TTP	2	96	5	B	0	M1
TTP	2	192	3	E	0	M1
TTP	2	288	5	E	0	M1
TTP	3	0	3	B	0	M1
TTP	3	96	4	B	0	M1
TTP	3	192	2	E	0	M1
TTP	3	288	6	E	0	M1
TTP	4	0	0	B	0	M1
TTP	4	96	7	B	0	M1
TTP	4	192	0	C	0	M1
HLD	5	0	5	576
TTP	5	96	3	B	0	M1
TTP	5	192	2	B	0	M1
TTP	5	288	1	B	0	M1
TTP	6	0	0	B	0	M1
TTP	6	96	7	B	0	M1
TTP	6	192	6	B	0	M1
HLD	7	0	2	576
TTP	7	96	4	B	0	M1
TTP	7	192	5	B	0	M1
TTP	7	288	6	B	0	M1
TTP	8	0	7	B	0	M1
TTP	8	96	0	B	0	M1
TTP	8	192	1	B	0	M1
TAP	9	0	5
TAP	9	96	3
TAP	9	96	6
TAP	9	192	2
TAP	9	288	1
TAP	9	288	4
TAP	10	0	5
TAP	10	96	3
TAP	10	96	6
TAP	10	192	2
TAP	10	288	1
TAP	10	288	4
TAP	11	0	2
TAP	11	48	2
TAP	11	96	4
TAP	11	192	5
TAP	11	240	5
TAP	11	288	3
TAP	12	0	2
TAP	12	0	3
TAP	12	96	4
TAP	12	96	5
BRK	12	192	1
BRK	12	192	6
TAP	13	0	6
TAP	13	96	0
TAP	13	96	5
TAP	13	192	1
TAP	13	288	2
TAP	13	288	7
TAP	14	0	6
TAP	14	96	0
TAP	14	96	5
TAP	14	192	1
TAP	14	288	2
TAP	14	288	7
TAP	15	0	1
TAP	15	48	1
TAP	15	96	3
TAP	15	192	6
TAP	15	240	6
TAP	15	288	4
TAP	16	0	1
TAP	16	0	3
TAP	16	96	4
TAP	16	96	6
BRK	16	192	0
BRK	16	192	7
HLD	17	0	2	96
TAP	17	96	0
HLD	17	192	3	96
TAP	17	288	0
HLD	18	0	7	96
TAP	18	96	4
HLD	18	192	6	96
TAP	18	288	4
HLD	19	0	3	96
TAP	19	96	1
HLD	19	192	4	96
TAP	19	288	6
STR	20	0	2
SCL	20	0	2	96	96	5
TAP	20	0	5
BRK	20	288	0
BRK	20	288	7
HLD	21	0	5	96
TAP	21	96	7
HLD	21	192	4	96
TAP	21	288	7
HLD	22	0	0	96
TAP	22	96	3
HLD	22	192	1	96
TAP	22	288	3
HLD	23	0	7	96
TAP	23	96	5
HLD	23	192	0	96
TAP	23	288	2
STR	24	0	6
SI_	24	0	6	96	48	4
STR	24	96	7
SI_	24	96	7	96	48	3
BRK	24	288	7
TAP	25	0	2
TAP	25	48	2
TAP	25	96	4
HLD	25	192	3	48
HLD	25	192	5	48
TAP	25	288	4
TAP	25	288	5
TAP	26	0	6
TAP	26	48	6
TAP	26	96	0
HLD	26	192	1	48
HLD	26	192	7	48
TAP	26	288	0
TAP	26	288	1
TAP	27	0	6
TAP	27	48	6
TAP	27	96	4
TAP	27	144	4
TAP	27	192	3
TAP	27	240	3
STR	27	288	1
SCR	27	288	1	96	192	6
HLD	28	0	7	192
BRK	28	288	0
BRK	28	288	1
TAP	29	0	5
TAP	29	48	5
TAP	29	96	3
HLD	29	192	2	48
HLD	29	192	4	48
TAP	29	288	2
TAP	29	288	3
TAP	30	0	1
TAP	30	48	1
TAP	30	96	7
HLD	30	192	0	48
HLD	30	192	6	48
TAP	30	288	6
TAP	30	288	7
TAP	31	0	1
TAP	31	48	1
TAP	31	96	3
TAP	31	144	3
TAP	31	192	4
TAP	31	240	4
TAP	31	288	6
STR	32	0	1
SI_	32	0	1	96	48	4
STR	32	96	0
SI_	32	96	0	96	48	5
BRK	32	288	0
TAP	33	0	2
TAP	33	48	2
TAP	33	96	4
TAP	33	192	3
HLD	33	192	5	96
TAP	33	288	7
TAP	34	0	6
TAP	34	48	6
TAP	34	96	0
HLD	34	192	1	96
TAP	34	192	7
TAP	34	288	3
TAP	35	0	2
TAP	35	48	2
TAP	35	96	7
TAP	35	144	7
TAP	35	192	0
TAP	35	240	0
HLD	35	288	4	384
TTP	36	0	2	E	0	M1
TTP	36	96	6	E	0	M1
TTP	36	192	0	E	0	M1
TTP	36	288	0	C	0	M1
TAP	37	0	6
TAP	37	48	6
XHO	37	96	0	96
TAP	37	192	4
TAP	37	240	4
XHO	37	288	1	96
TAP	38	0	5
TAP	38	48	5
XHO	38	96	0	96
TAP	38	192	3
TAP	38	240	3
XHO	38	288	1	96
TTP	39	0	5	B	0	M1
TTP	39	0	6	B	0	M1
TTP	39	96	0	C	0	M1
TTP	39	192	1	B	0	M1
TTP	39	192	2	B	0	M1
TTP	39	288	4	E	0	M1
HLD	40	0	5	96
HLD	40	96	7	96
HLD	40	192	0	96
STR	40	288	2
SXR	40	288	2	96	384	4
TTP	42	96	6	E	0	M1
TTP	42	192	0	C	0	M1
TTP	42	288	2	E	0	M1
STR	43	0	7
SXR	43	0	7	96	288	3
TTP	44	96	2	E	0	M1
TTP	44	192	0	C	0	M1
TTP	44	288	6	E	0	M1
STR	45	0	0
SXR	45	0	0	96	288	4
TTP	46	96	6	E	0	M1
TTP	46	192	0	C	0	M1
TTP	46	288	2	E	0	M1
STR	47	0	7
SXL	47	0	7	96	288	3
TTP	48	96	2	E	0	M1
TTP	48	192	0	C	0	M1
TTP	48	288	6	E	0	M1
TAP	49	0	2
TAP	49	48	2
TAP	49	96	4
HLD	49	192	2	48
HLD	49	192	4	48
HLD	49	288	3	48
HLD	49	288	5	48
TAP	50	0	4
TAP	50	0	6
TTP	50	96	7	E	0	M1
TTP	50	192	0	C	0	M1
TTP	50	288	3	E	0	M1
TAP	51	0	5
TAP	51	48	5
TAP	51	96	3
HLD	51	192	3	48
HLD	51	192	5	48
HLD	51	288	2	48
HLD	51	288	4	48
TAP	52	0	1
TAP	52	0	3
TTP	52	96	1	E	0	M1
TTP	52	192	0	C	0	M1
TTP	52	288	5	E	0	M1
TAP	53	0	2
TAP	53	48	2
TAP	53	96	4
HLD	53	192	3	48
HLD	53	192	4	48
HLD	53	288	4	48
HLD	53	288	5	48
TAP	54	0	5
TAP	54	0	6
TTP	54	96	7	E	0	M1
TTP	54	192	0	E	0	M1
TTP	54	288	1	E	0	M1
TAP	55	0	5
TAP	55	48	5
TAP	55	96	3
HLD	55	192	3	48
HLD	55	192	4	48
HLD	55	288	2	48
HLD	55	288	3	48
TAP	56	0	1
TAP	56	0	2
TTP	56	96	1	E	0	M1
TTP	56	192	0	E	0	M1
TTP	56	288	7	E	0	M1
TTP	57	0	2	E	0	M1
TTP	57	0	6	E	0	M1
THO	57	96	0	96	C	1	M1
HLD	58	0	0	96
TAP	58	96	7
STR	58	144	7
SI_	58	144	7	96	48	3
XTP	58	240	0
XHO	58	336	1	96
TAP	59	48	2
TAP	59	96	2
STR	59	192	2
SI_	59	192	2	96	48	7
STR	59	192	3
SI_	59	192	3	96	48	6
TAP	60	0	6
TAP	60	48	6
TAP	60	96	7
TAP	60	144	7
TAP	60	192	0
TAP	60	240	0
TAP	60	288	1
TAP	60	336	1
STR	61	0	6
SI_	61	0	6	96	48	3
STR	61	96	0
SI_	61	96	0	96	48	4
TAP	61	192	7
BRK	61	288	2
BRK	61	288	6
HLD	62	0	5	96
TAP	62	96	7
STR	62	144	7
SI_	62	144	7	96	48	2
XTP	62	240	4
XHO	62	336	3	96
TAP	63	48	2
TAP	63	96	2
TAP	63	192	1
TAP	63	192	2
TAP	63	288	0
TAP	63	288	7
TAP	64	0	2
TAP	64	48	3
TAP	64	96	0
TAP	64	144	0
TAP	64	192	5
TAP	64	240	4
TAP	64	288	7
TAP	64	336	7
HLD	65	0	1	96
TAP	65	96	3
HLD	65	144	3	96
TAP	65	240	2
TAP	65	336	1
TAP	65	336	7
TAP	66	0	1
HLD	66	0	7	96
TAP	66	96	0
STR	66	144	0
SI_	66	144	0	96	48	4
XTP	66	240	6
XHO	66	336	6	96
TAP	67	48	5
TAP	67	96	5
STR	67	192	4
SI_	67	192	4	96	48	1
STR	67	192	5
SI_	67	192	5	96	48	0
TAP	68	0	1
TAP	68	48	1
TAP	68	96	0
TAP	68	144	0
TAP	68	192	7
TAP	68	240	7
TAP	68	288	6
TAP	68	336	6
STR	69	0	1
SI_	69	0	1	96	48	4
STR	69	96	7
SI_	69	96	7	96	48	3
TAP	69	192	0
BRK	69	288	1
BRK	69	288	5
HLD	70	0	2	96
TAP	70	96	0
STR	70	144	0
SI_	70	144	0	96	48	5
XTP	70	240	3
XHO	70	336	4	96
TAP	71	48	5
TAP	71	96	5
TAP	71	192	5
TAP	71	192	6
TAP	71	288	0
TAP	71	288	7
TAP	72	0	5
TAP	72	48	4
TAP	72	96	7
TAP	72	144	7
TAP	72	192	2
TAP	72	240	3
STR	72	288	0
SCR	72	288	0	96	192	7
TAP	72	336	0
TAP	73	0	7
TAP	73	288	1
STR	73	288	6
SCL	73	288	6	96	672	7
BRK	74	0	0
HLD	76	0	2	384
TAP	76	192	3
STR	77	0	4
SCL	77	0	4	96	192	1
HLD	78	0	5	576
TAP	78	192	4
TAP	79	0	2
TAP	79	192	3
HLD	80	0	2	384
TAP	80	192	3
STR	81	0	4
SCR	81	0	4	96	192	7
TTP	82	0	5	E	0	M1
TTP	82	96	3	E	0	M1
TTP	82	192	5	B	0	M1
TTP	82	288	2	B	0	M1
TTP	83	0	6	B	0	M1
TTP	83	96	1	B	0	M1
TTP	83	192	7	E	0	M1
TTP	83	288	1	E	0	M1
TTP	84	0	7	B	0	M1
TTP	84	96	0	B	0	M1
TTP	84	192	6	E	0	M1
TTP	84	288	2	E	0	M1
TTP	85	0	4	B	0	M1
TTP	85	96	3	B	0	M1
TTP	85	192	0	C	0	M1
XTP	85	336	0
HLD	86	0	0	288
TTP	86	96	7	B	0	M1
TTP	86	192	0	C	0	M1
TTP	86	288	3	B	0	M1
HLD	87	0	4	288
TTP	87	96	4	B	0	M1
TTP	87	192	0	C	0	M1
TTP	87	288	0	B	0	M1
HLD	88	0	6	96
TAP	88	96	0
HLD	88	192	1	96
TAP	88	288	7
HLD	89	0	6	96
HLD	89	0	7	96
HLD	89	192	0	96
HLD	89	192	1	96
TAP	90	0	3
TAP	90	0	4
TAP	90	96	3
TAP	90	96	4
TAP	90	192	3
TAP	90	192	4
BRK	90	288	1
BRK	90	288	6
HLD	91	0	5	96
TAP	91	96	4
HLD	91	144	4	96
TAP	91	240	3
HLD	91	336	2	144
TAP	92	48	0
TAP	92	96	0
HLD	92	192	5	96
TAP	92	288	7
TAP	93	0	6
TAP	93	48	7
TAP	93	96	5
TAP	93	192	1
TAP	93	240	0
TAP	93	288	2
TAP	94	0	4
TAP	94	0	5
TAP	94	96	2
TAP	94	96	3
BRK	94	192	1
BRK	94	192	6
HLD	95	0	1	96
TAP	95	96	0
HLD	95	144	0	96
TAP	95	240	7
HLD	95	336	6	144
TAP	96	48	4
TAP	96	96	4
HLD	96	192	1	96
TAP	96	288	3
TAP	97	0	2
TAP	97	48	3
TAP	97	96	1
TAP	97	192	5
TAP	97	240	4
TAP	97	288	6
STR	98	0	1
SLR	98	0	1	96	144	0
STR	98	0	6
SLL	98	0	6	96	144	7
BRK	98	288	1
BRK	98	288	6
HLD	99	0	4	96
TAP	99	96	3
STR	99	144	3
SI_	99	144	3	96	48	7
XTP	99	240	4
XHO	99	336	5	96
TAP	100	48	6
TAP	100	96	6
STR	100	192	6
SI_	100	192	6	96	48	3
STR	100	192	7
SI_	100	192	7	96	48	2
TAP	101	0	2
TAP	101	48	2
TAP	101	96	3
TAP	101	144	3
TAP	101	192	4
TAP	101	240	4
TAP	101	288	5
TAP	101	336	5
STR	102	0	2
SI_	102	0	2	96	48	7
STR	102	96	4
SI_	102	96	4	96	48	0
TAP	102	192	3
BRK	102	288	2
BRK	102	288	6
HLD	103	0	1	96
TAP	103	96	3
STR	103	144	3
SI_	103	144	3	96	48	6
XTP	103	240	0
XHO	103	336	7	96
TAP	104	48	6
TAP	104	96	6
TAP	104	192	5
TAP	104	192	6
TAP	104	288	3
TAP	104	288	4
TAP	105	0	6
TAP	105	48	7
TAP	105	96	4
TAP	105	144	4
TAP	105	192	1
TAP	105	240	0
STR	105	288	3
SCL	105	288	3	96	192	4
TAP	105	336	3
TAP	106	0	4
TAP	106	288	2
TAP	106	288	5
STR	107	0	1
SI_	107	0	1	96	48	3
STR	107	96	0
SI_	107	96	0	96	48	4
BRK	107	288	2
BRK	107	288	6
TAP	108	0	5
TAP	108	96	3
TAP	108	96	6
TAP	108	192	2
TAP	108	288	1
TAP	108	288	4
TAP	109	0	5
TAP	109	96	3
TAP	109	96	6
TAP	109	192	2
TAP	109	288	1
TAP	109	288	4
TAP	110	0	5
TAP	110	96	4
TAP	110	96	5
TAP	110	192	2
TAP	110	288	2
TAP	110	288	3
TAP	111	0	5
TAP	111	96	4
TAP	111	96	5
TAP	111	192	2
TAP	111	288	2
TAP	111	288	3
TAP	112	0	4
TAP	112	96	3
TAP	112	96	4
TAP	112	192	3
TAP	112	288	3
TAP	112	288	4
TAP	113	0	4
TAP	113	96	3
TAP	113	96	4
TAP	113	192	3
STR	113	288	3
SCL	113	288	3	96	768	4
STR	113	288	4
SCR	113	288	4	96	768	3

T_REC_TAP	296
T_REC_BRK	25
T_REC_XTP	7
T_REC_HLD	72
T_REC_XHO	10
T_REC_STR	39
T_REC_BST	0
T_REC_XST	0
T_REC_TTP	84
T_REC_THO	1
T_REC_SLD	39
T_REC_ALL	573
T_NUM_TAP	426
T_NUM_BRK	25
T_NUM_HLD	83
T_NUM_SLD	39
T_NUM_ALL	573
T_JUDGE_TAP	451
T_JUDGE_HLD	202
T_JUDGE_SLD	39
T_JUDGE_ALL	692
TTM_EACHPAIRS	79
TTM_SCR_TAP	213000
TTM_SCR_BRK	65000
TTM_SCR_HLD	83000
TTM_SCR_SLD	58500
TTM_SCR_ALL	419500
TTM_SCR_S	404500
TTM_SCR_SS	417000
TTM_RAT_ACV	10059

