VERSION	0.00.00	1.03.00
FES_MODE	0
BPM_DEF	185.000	185.000	185.000	185.000
MET_DEF	4	4
RESOLUTION	384
CLK_DEF	384
COMPATIBLE_CODE	MA2

BPM	0	0	185.000
MET	0	0	4	4

XTP	1	0	3
XHO	1	0	4	384
HLD	2	0	2	384
HLD	3	0	3	384
TAP	4	0	2
TAP	4	96	2
XTP	4	192	2
XTP	4	192	3
HLD	5	0	3	384
TAP	5	0	4
HLD	6	0	5	384
HLD	7	0	4	384
TAP	8	0	5
XTP	8	96	4
XTP	8	96	5
BRK	8	192	3
BRK	8	192	6
TAP	9	0	5
TAP	9	96	5
TAP	9	192	4
TAP	10	0	2
TAP	10	96	2
TAP	10	192	3
TAP	11	0	5
TAP	11	96	5
TAP	11	192	4
TAP	11	288	4
TAP	12	0	3
TAP	12	96	2
TAP	12	192	2
TAP	12	192	3
TAP	13	0	2
TAP	13	96	2
TAP	13	192	3
TAP	14	0	5
TAP	14	96	5
TAP	14	192	4
TAP	15	0	2
TAP	15	96	2
TAP	15	192	3
TAP	15	288	3
TAP	16	0	4
TAP	16	96	5
TAP	16	192	4
TAP	16	192	5
TAP	17	0	6
TAP	17	96	5
TAP	17	192	4
TAP	17	288	3
TAP	18	0	2
TAP	18	96	2
XTP	18	192	2
XTP	18	192	3
TAP	19	0	1
TAP	19	96	2
TAP	19	192	3
TAP	19	288	4
TAP	20	0	5
TAP	20	96	5
XTP	20	192	4
XTP	20	192	5
TAP	21	0	6
TAP	21	96	5
TAP	21	192	4
TAP	21	288	3
TAP	22	0	2
TAP	22	96	1
TAP	22	192	2
TAP	22	288	2
TAP	23	0	3
TAP	23	96	4
TAP	23	192	5
TAP	23	288	6
TAP	24	0	7
TAP	24	96	0
TAP	24	96	7
BRK	24	192	1
BRK	24	192	6
STR	25	0	0
SCR	25	0	0	96	384	4
TAP	26	192	5
TAP	26	288	5
STR	27	0	6
SCL	27	0	6	96	384	2
TAP	28	192	1
TAP	28	288	1
STR	29	0	0
SSL	29	0	0	96	384	4
XTP	30	192	5
XTP	30	288	5
TAP	31	0	6
TAP	31	96	6
TAP	31	192	7
TAP	31	288	7
XTP	32	0	0
XTP	32	96	1
XTP	32	192	0
XTP	32	288	1
STR	33	0	7
SCL	33	0	7	96	384	3
TAP	34	192	2
TAP	34	288	2
STR	35	0	1
SCR	35	0	1	96	384	5
TAP	36	192	6
TAP	36	288	6
STR	37	0	7
SI_	37	0	7	96	240	4
STR	38	0	3
SI_	38	0	3	96	240	0
TAP	39	0	7
TAP	39	96	7
TAP	39	192	0
TAP	39	288	0
XTP	40	0	0
XTP	40	0	7
XTP	40	96	0
XTP	40	96	7
XTP	40	192	1
XTP	40	192	6
XTP	40	288	1
XTP	40	288	6
BRK	41	0	2
BRK	41	0	5
TTP	43	0	5	E	0	L1
TTP	43	192	6	E	0	L1
TTP	44	0	7	E	0	L1
TTP	45	0	1	E	0	L1
TTP	45	192	2	E	0	L1
TTP	46	0	3	E	0	L1
TTP	46	192	4	E	0	L1
TTP	47	0	5	E	0	L1
TTP	47	192	6	E	0	L1
TTP	48	0	0	C	0	L1
TTP	49	0	3	E	0	L1
TTP	49	192	2	E	0	L1
TTP	50	0	0	E	0	L1
TTP	50	0	1	E	0	L1
TTP	51	0	7	E	0	L1
TTP	51	192	6	E	0	L1
TTP	52	0	4	E	0	L1
TTP	52	0	5	E	0	L1
TTP	53	0	7	E	0	L1
TTP	53	192	0	E	0	L1
TTP	54	0	1	E	0	L1
TTP	54	192	2	E	0	L1
TTP	55	0	3	E	0	L1
TTP	55	192	4	E	0	L1
THO	56	0	0	384	C	1	L1
TTP	56	0	2	B	0	L1
TTP	56	0	5	B	0	L1
TAP	58	0	1
TAP	58	96	1
TAP	58	192	0
TAP	58	192	1
TAP	58	288	0
TAP	58	288	1
TAP	59	0	6
TAP	59	96	6
TAP	59	96	7
XTP	59	192	0
XTP	59	192	5
HLD	60	0	5	96
TAP	60	96	4
HLD	60	192	2	96
TAP	60	288	3
XTP	61	0	3
XTP	61	0	4
XTP	61	96	2
XTP	61	96	5
BRK	61	192	1
BRK	61	192	6
TAP	62	0	6
TAP	62	96	6
TAP	62	192	6
TAP	62	192	7
TAP	62	288	6
TAP	62	288	7
TAP	63	0	1
TAP	63	96	0
TAP	63	96	1
XTP	63	192	2
XTP	63	192	7
HLD	64	0	2	96
TAP	64	96	3
HLD	64	192	5	96
TAP	64	288	4
XTP	65	0	3
XTP	65	0	4
XTP	65	96	2
XTP	65	96	5
BRK	65	192	1
BRK	65	192	6
TAP	66	0	0
TAP	66	96	1
TAP	66	192	2
TAP	66	192	3
TAP	66	288	2
TAP	66	288	3
TAP	67	0	1
TAP	67	96	0
XTP	67	192	6
XTP	67	192	7
XTP	67	288	6
XTP	67	288	7
TAP	68	0	5
TAP	68	96	4
TAP	68	192	2
TAP	68	288	3
XTP	69	0	4
XTP	69	0	5
XTP	69	96	3
XTP	69	96	6
BRK	69	192	2
BRK	69	192	7
TAP	70	0	7
TAP	70	96	6
TAP	70	192	4
TAP	70	192	5
TAP	70	288	4
TAP	70	288	5
TAP	71	0	6
TAP	71	96	7
XTP	71	192	0
XTP	71	192	1
XTP	71	288	0
XTP	71	288	1
TAP	72	0	2
TAP	72	96	3
TAP	72	192	5
TAP	72	288	4
TAP	73	0	3
TAP	73	96	2
TAP	73	192	1
XTP	73	288	0
XTP	73	288	7
BRK	74	0	1
BRK	74	0	6
HLD	76	0	5	768
HLD	78	0	4	768
HLD	80	0	3	384
XTP	81	0	2
TTP	82	0	2	E	0	L1
TTP	82	192	3	E	0	L1
TTP	83	0	4	E	0	L1
TTP	84	0	6	E	0	L1
TTP	84	192	5	E	0	L1
TTP	85	0	4	E	0	L1
TTP	86	0	3	E	0	L1
TTP	86	96	3	B	0	L1
TTP	86	192	4	B	0	L1
TTP	87	0	6	E	0	L1
TTP	87	96	6	B	0	L1
TTP	87	192	7	B	0	L1
TTP	88	0	1	B	0	L1
TTP	88	96	0	B	0	L1
TTP	88	192	7	B	0	L1
TTP	88	288	6	B	0	L1
TTP	89	0	5	B	0	L1
TTP	89	96	4	B	0	L1
TTP	89	192	3	B	0	L1
TTP	89	288	2	B	0	L1
TTP	90	0	0	C	1	L1
TAP	91	0	6
TAP	91	96	6
TAP	91	96	7
TAP	91	192	1
TAP	91	288	0
TAP	91	288	1
TAP	92	0	2
TAP	92	96	2
TAP	92	96	3
XTP	92	192	1
XTP	92	192	4
TAP	93	0	5
TAP	93	96	4
TAP	93	192	3
TAP	93	288	2
XTP	94	0	0
XTP	94	0	1
XTP	94	96	2
XTP	94	96	7
BRK	94	192	3
BRK	94	192	6
TAP	95	0	1
TAP	95	96	0
TAP	95	96	1
TAP	95	192	6
TAP	95	288	6
TAP	95	288	7
TAP	96	0	5
TAP	96	96	4
TAP	96	96	5
XTP	96	192	3
XTP	96	192	6
TAP	97	0	2
TAP	97	96	3
TAP	97	192	4
TAP	97	288	5
XTP	98	0	6
XTP	98	0	7
XTP	98	96	0
XTP	98	96	5
BRK	98	192	1
BRK	98	192	4
TAP	99	0	0
TAP	99	96	6
TAP	99	96	7
TAP	99	192	5
TAP	99	288	6
TAP	99	288	7
TAP	100	0	0
TAP	100	96	1
TAP	100	192	2
TAP	100	192	3
TAP	100	288	3
TAP	100	288	4
TAP	101	0	2
TAP	101	96	0
TAP	101	96	1
TAP	101	192	7
TAP	101	288	0
TAP	101	288	1
TAP	102	0	2
TAP	102	0	3
TAP	102	96	1
TAP	102	96	4
XTP	102	192	0
XTP	102	192	5
TAP	103	0	7
TAP	103	96	0
TAP	103	96	1
TAP	103	192	2
TAP	103	288	0
TAP	103	288	1
TAP	104	0	7
TAP	104	96	6
TAP	104	192	4
TAP	104	192	5
TAP	104	288	3
TAP	104	288	4
TAP	105	0	5
TAP	105	96	6
TAP	105	96	7
TAP	105	192	0
TAP	105	288	6
TAP	105	288	7
TAP	106	0	5
TAP	106	96	4
XTP	106	192	3
XTP	106	192	4
XTP	106	288	2
XTP	106	288	5
BRK	107	0	1
BRK	107	0	6
TTP	108	0	0	C	1	L1
TTP	108	0	2	E	0	L1
TTP	108	0	6	E	0	L1

T_REC_TAP	192
T_REC_BRK	20
T_REC_XTP	68
T_REC_HLD	12
T_REC_XHO	1
T_REC_STR	7
T_REC_BST	0
T_REC_XST	0
T_REC_TTP	50
T_REC_THO	1
T_REC_SLD	7
T_REC_ALL	358
T_NUM_TAP	317
T_NUM_BRK	20
T_NUM_HLD	14
T_NUM_SLD	7
T_NUM_ALL	358
T_JUDGE_TAP	337
T_JUDGE_HLD	104
T_JUDGE_SLD	7
T_JUDGE_ALL	448
TTM_EACHPAIRS	75
TTM_SCR_TAP	158500
TTM_SCR_BRK	52000
TTM_SCR_HLD	14000
TTM_SCR_SLD	10500
TTM_SCR_ALL	235000
TTM_SCR_S	226050
TTM_SCR_SS	233000
TTM_RAT_ACV	10085

