VERSION	0.00.00	1.03.00
FES_MODE	0
BPM_DEF	185.000	185.000	185.000	185.000
MET_DEF	4	4
RESOLUTION	384
CLK_DEF	384
COMPATIBLE_CODE	MA2

BPM	0	0	185.000
MET	0	0	4	4

TAP	1	0	3
TAP	1	192	3
TAP	2	0	3
TAP	3	0	4
TAP	3	192	4
TAP	4	0	4
TAP	5	0	3
TAP	5	192	3
TAP	6	0	3
TAP	7	0	4
TAP	7	192	4
BRK	8	0	4
TAP	9	0	3
TAP	9	192	3
TAP	10	0	2
TAP	10	192	2
TAP	11	0	1
TAP	11	192	1
TAP	12	0	0
TAP	12	0	7
TAP	13	0	7
TAP	13	192	7
TAP	14	0	6
TAP	14	192	6
TAP	15	0	5
TAP	15	192	5
TAP	16	0	3
TAP	16	0	4
TAP	17	0	4
TAP	17	192	4
TAP	18	0	5
TAP	18	192	5
TAP	19	0	6
TAP	19	192	6
HLD	20	0	0	192
HLD	20	0	7	192
TAP	21	0	0
TAP	21	192	0
TAP	22	0	1
TAP	22	192	1
TAP	23	0	2
TAP	23	192	2
HLD	24	0	3	192
HLD	24	0	4	192
STR	25	0	5
SI_	25	0	5	96	288	1
STR	27	0	2
SI_	27	0	2	96	288	6
STR	29	0	7
SI_	29	0	7	96	288	3
STR	31	0	0
SI_	31	0	0	96	288	4
TAP	33	0	7
TAP	33	192	7
TAP	34	0	6
TAP	34	192	6
TAP	35	0	5
TAP	35	192	5
TAP	36	0	4
TAP	36	96	4
TAP	36	192	4
TAP	37	0	3
TAP	37	192	3
TAP	38	0	2
TAP	38	192	2
TAP	39	0	1
TAP	39	192	1
HLD	40	0	0	192
HLD	40	0	7	192
TTP	41	0	0	B	0	L1
TTP	42	0	1	B	0	L1
TTP	43	0	2	B	0	L1
TTP	44	0	3	B	0	L1
TTP	45	0	4	B	0	L1
TTP	46	0	5	B	0	L1
TTP	47	0	6	B	0	L1
TTP	48	0	7	B	0	L1
TTP	49	0	7	E	0	L1
TTP	50	0	6	E	0	L1
TTP	51	0	5	E	0	L1
TTP	52	0	4	E	0	L1
TTP	53	0	3	E	0	L1
TTP	54	0	2	E	0	L1
TTP	55	0	1	E	0	L1
TTP	56	0	0	E	0	L1
TTP	57	0	0	C	1	L1
TAP	58	0	7
TAP	58	192	7
TAP	59	0	6
TAP	59	192	6
TAP	60	0	5
TAP	60	96	5
TAP	60	192	5
XTP	61	0	4
XTP	61	96	4
XTP	61	192	4
TAP	62	0	3
TAP	62	192	3
TAP	63	0	2
TAP	63	192	2
TAP	64	0	1
TAP	64	96	1
TAP	64	192	1
TAP	65	0	0
TAP	65	96	0
BRK	65	192	0
TAP	66	0	1
TAP	66	192	1
TAP	67	0	2
TAP	67	192	2
TAP	68	0	3
TAP	68	96	3
TAP	68	192	3
XTP	69	0	4
XTP	69	96	3
XTP	69	192	4
TAP	70	0	5
TAP	70	192	5
TAP	71	0	6
TAP	71	192	6
TAP	72	0	7
TAP	72	96	7
TAP	72	192	7
TAP	73	0	0
TAP	73	96	7
BRK	73	192	0
HLD	74	0	7	384
HLD	76	0	0	384
HLD	78	0	6	384
HLD	78	0	7	384
HLD	80	0	0	384
HLD	80	0	1	384
TAP	82	0	2
TAP	83	0	2
TAP	84	0	3
TAP	85	0	3
TAP	86	0	4
TAP	86	192	4
TAP	87	0	4
TAP	87	192	4
TAP	88	0	5
TAP	88	192	5
TAP	89	0	5
TAP	89	192	5
BRK	90	0	4
BRK	90	0	5
TAP	91	0	3
TAP	91	192	3
TAP	92	0	2
TAP	92	192	2
TAP	93	0	1
TAP	93	96	1
TAP	93	192	1
TAP	94	0	0
TAP	94	96	0
TAP	94	192	0
TAP	95	0	7
TAP	95	192	7
TAP	96	0	6
TAP	96	192	6
TAP	97	0	5
TAP	97	96	5
TAP	97	192	5
TAP	98	0	4
TAP	98	96	4
XTP	98	192	3
XTP	98	192	4
TAP	99	0	5
TAP	99	96	5
TAP	99	192	5
TAP	100	0	6
TAP	100	96	6
TAP	100	192	6
TAP	101	0	7
TAP	101	96	7
TAP	101	192	0
TAP	101	288	0
TAP	102	0	7
TAP	102	96	7
TAP	102	192	0
TAP	102	192	7
TAP	103	0	1
TAP	103	96	1
TAP	103	192	1
TAP	104	0	2
TAP	104	96	2
TAP	104	192	2
TAP	105	0	3
TAP	105	96	3
TAP	105	192	4
TAP	105	288	4
TAP	106	0	3
TAP	106	96	3
TAP	106	192	3
TAP	106	192	4
THO	107	0	0	384	C	1	L1

T_REC_TAP	145
T_REC_BRK	5
T_REC_XTP	8
T_REC_HLD	12
T_REC_XHO	0
T_REC_STR	4
T_REC_BST	0
T_REC_XST	0
T_REC_TTP	17
T_REC_THO	1
T_REC_SLD	4
T_REC_ALL	196
T_NUM_TAP	174
T_NUM_BRK	5
T_NUM_HLD	13
T_NUM_SLD	4
T_NUM_ALL	196
T_JUDGE_TAP	179
T_JUDGE_HLD	80
T_JUDGE_SLD	4
T_JUDGE_ALL	263
TTM_EACHPAIRS	11
TTM_SCR_TAP	87000
TTM_SCR_BRK	13000
TTM_SCR_HLD	13000
TTM_SCR_SLD	6000
TTM_SCR_ALL	119000
TTM_SCR_S	114950
TTM_SCR_SS	118500
TTM_RAT_ACV	10042

