VERSION	0.00.00	1.03.00
FES_MODE	0
BPM_DEF	190.000	190.000	190.000	190.000
MET_DEF	4	4
RESOLUTION	384
CLK_DEF	384
COMPATIBLE_CODE	MA2

BPM	0	0	190.000
MET	0	0	4	4

TAP	1	192	5
TAP	1	288	4
TAP	2	0	3
TAP	2	96	4
TAP	2	192	3
STR	2	288	2
SCR	2	288	2	96	96	5
TAP	3	0	6
TAP	3	192	2
TAP	3	288	3
TAP	4	0	4
TAP	4	96	3
TAP	4	192	4
STR	4	288	5
SCL	4	288	5	96	96	2
TAP	5	0	1
TAP	5	192	7
TAP	5	288	5
TAP	6	0	4
TAP	6	192	4
STR	6	288	3
SCL	6	288	3	96	288	4
TAP	7	0	4
TAP	8	0	0
TAP	8	0	7
TAP	8	96	2
TAP	8	96	6
TAP	8	144	2
HLD	8	144	6	96
HLD	8	240	4	96
HLD	8	336	3	96
HLD	9	48	1	96
TAP	9	144	6
TAP	9	240	3
TAP	9	240	4
TAP	9	288	3
TAP	9	288	4
STR	10	0	1
SI_	10	0	1	96	48	4
TAP	10	96	5
STR	10	192	6
SI_	10	192	6	96	48	3
TAP	10	288	2
STR	11	0	1
SI_	11	0	1	96	48	4
TAP	11	96	5
STR	11	192	6
SI_	11	192	6	96	48	3
TAP	11	288	2
TAP	12	0	0
TAP	12	48	0
TAP	12	48	7
TTP	12	144	1	B	0	M1
TTP	12	144	2	B	0	M1
TTP	12	144	3	E	0	M1
TTP	12	240	5	B	0	M1
TTP	12	240	5	E	0	M1
TTP	12	240	6	B	0	M1
TTP	12	336	1	E	0	M1
TTP	12	336	7	E	0	M1
TTP	13	48	3	E	0	M1
TTP	13	48	3	B	0	M1
TTP	13	48	4	B	0	M1
TTP	13	48	5	E	0	M1
TAP	13	144	0
TAP	13	144	7
STR	13	192	0
SCR	13	192	0	96	48	3
STR	13	192	7
SCL	13	192	7	96	48	4
STR	14	0	6
SI_	14	0	6	96	48	3
TAP	14	96	2
STR	14	192	1
SI_	14	192	1	96	48	4
TAP	14	288	5
STR	15	0	6
SI_	15	0	6	96	48	3
TAP	15	96	2
STR	15	192	1
SI_	15	192	1	96	48	4
STR	15	288	5
SCR	15	288	5	96	288	4
TTP	16	0	0	C	1	M1
HLD	17	0	2	672
HLD	17	0	4	96
TAP	17	144	4
TTP	17	288	5	E	0	M1
TTP	18	96	6	E	0	M1
TTP	18	288	7	E	0	M1
TAP	19	0	7
TAP	19	96	4
TAP	19	96	6
TAP	19	192	0
TAP	19	288	1
TAP	19	288	3
TAP	20	0	4
TAP	20	0	5
TAP	20	96	6
TAP	20	96	7
TAP	20	192	0
TAP	20	192	1
TAP	20	288	2
TAP	20	288	3
HLD	21	0	3	96
HLD	21	0	5	672
TAP	21	144	3
TTP	21	288	3	E	0	M1
TTP	22	96	2	E	0	M1
TTP	22	288	1	E	0	M1
TAP	23	0	0
TAP	23	96	1
TAP	23	96	3
TAP	23	192	7
TAP	23	288	4
TAP	23	288	6
TAP	24	0	2
TAP	24	0	3
TAP	24	96	0
TAP	24	96	1
TAP	24	192	6
TAP	24	192	7
TAP	24	288	4
TAP	24	288	5
TAP	25	0	1
TAP	25	0	4
TAP	25	96	0
TAP	25	144	0
TAP	25	192	7
HLD	25	288	2	96
TAP	25	288	6
HLD	26	0	1	96
HLD	26	96	0	96
HLD	26	192	7	96
HLD	26	288	5	96
STR	27	0	4
SCR	27	0	4	96	48	7
TAP	27	96	0
STR	27	192	3
SCL	27	192	3	96	48	0
TAP	27	288	7
STR	28	0	4
SCR	28	0	4	96	48	7
TAP	28	96	0
TAP	28	192	3
TAP	28	288	2
TAP	28	288	4
TAP	29	0	3
TAP	29	0	6
TAP	29	96	7
TAP	29	144	7
TAP	29	192	0
TAP	29	288	1
HLD	29	288	5	96
HLD	30	0	6	96
HLD	30	96	7	96
HLD	30	192	0	96
HLD	30	288	2	96
STR	31	0	3
SCL	31	0	3	96	48	0
TAP	31	96	7
STR	31	192	4
SI_	31	192	4	96	48	6
STR	31	288	0
SCR	31	288	0	96	192	7
XTP	32	0	7
TAP	33	0	1
STR	33	0	6
SCL	33	0	6	96	96	3
TAP	33	192	7
TAP	33	288	7
STR	34	0	1
SCR	34	0	1	96	96	4
TAP	34	192	0
TAP	34	288	0
TAP	35	0	3
TAP	35	0	6
TAP	35	96	2
TAP	35	144	2
TAP	35	192	3
TAP	35	288	0
TAP	35	288	7
TAP	35	336	0
TAP	35	336	7
TAP	36	48	1
TAP	36	48	3
TAP	36	144	4
STR	36	144	6
SI_	36	144	6	96	48	2
TAP	36	240	0
TAP	36	288	0
STR	37	0	1
SCR	37	0	1	96	96	4
TAP	37	0	6
TAP	37	192	0
TAP	37	288	7
STR	38	0	6
SCL	38	0	6	96	96	3
TAP	38	192	7
TAP	38	288	0
TAP	39	0	1
TAP	39	0	5
TAP	39	96	3
TAP	39	96	6
TAP	39	144	3
TAP	39	144	6
TAP	39	240	0
TAP	39	240	7
TAP	39	336	1
TAP	39	336	6
TTP	40	48	3	E	0	M1
TTP	40	48	4	E	0	M1
TTP	40	48	5	E	0	M1
TTP	40	96	0	C	1	M1
XTP	40	192	0
XTP	40	192	7
BST	40	288	1
SI_	40	288	1	96	48	5
BRK	40	288	6
STR	41	0	0
SI_	41	0	0	96	48	4
STR	41	96	7
SI_	41	96	7	96	48	3
STR	41	192	6
SI_	41	192	6	96	48	2
STR	41	288	0
SCR	41	288	0	96	96	5
TAP	42	0	7
STR	42	96	7
SI_	42	96	7	96	48	4
STR	42	192	0
SI_	42	192	0	96	48	3
STR	42	288	6
SI_	42	288	6	96	48	2
STR	43	0	7
SI_	43	0	7	96	48	3
STR	43	96	0
SI_	43	96	0	96	48	4
STR	43	192	1
SI_	43	192	1	96	48	5
STR	43	288	7
SCL	43	288	7	96	96	2
HLD	44	0	0	288
TAP	44	192	2
STR	44	288	2
SCR	44	288	2	96	96	5
TAP	45	0	1
HLD	45	192	7	96
STR	45	288	5
SCL	45	288	5	96	96	2
TAP	46	0	6
HLD	46	192	0	96
STR	46	288	2
SUR	46	288	2	96	96	6
TAP	47	0	1
HLD	47	192	7	96
TAP	47	288	5
TAP	48	0	3
TAP	48	0	4
TAP	48	96	1
TAP	48	96	2
TAP	48	192	0
TAP	48	192	7
TAP	48	288	5
TAP	48	288	6
TAP	49	0	3
HLD	49	0	4	96
HLD	49	96	6	96
HLD	49	192	7	96
STR	49	288	0
SCR	49	288	0	96	48	3
TAP	50	0	4
TAP	50	96	5
TAP	50	192	4
TAP	50	192	6
TAP	50	288	3
HLD	51	0	3	96
TAP	51	0	4
HLD	51	96	1	96
HLD	51	192	0	96
STR	51	288	7
SCL	51	288	7	96	48	4
TAP	52	0	3
TAP	52	96	2
TAP	52	192	1
TAP	52	192	3
TAP	52	288	0
STR	53	0	4
SCR	53	0	4	96	96	0
STR	53	96	0
SCR	53	96	0	96	96	4
TAP	53	192	4
STR	53	288	0
SXL	53	288	0	96	96	0
TAP	54	0	6
STR	54	96	7
SXR	54	96	7	96	96	7
TAP	54	192	1
STR	54	288	0
SCR	54	288	0	96	192	7
TTP	55	0	0	C	1	M1
TAP	56	0	3
TAP	56	0	5
TAP	56	96	0
TAP	56	144	1
TAP	56	144	3
TAP	56	240	5
TAP	56	288	4
TAP	56	336	3
HLD	57	0	2	96
TAP	57	96	3
TAP	57	144	3
TAP	57	240	2
TAP	57	288	3
TAP	57	336	4
HLD	58	0	5	96
HLD	58	96	7	96
HLD	58	192	0	96
TAP	58	288	2
TAP	59	0	2
TAP	59	0	4
TAP	59	96	7
TAP	59	144	4
TAP	59	144	6
TAP	59	240	3
TAP	59	240	4
STR	59	288	3
SI_	59	288	3	96	48	1
TAP	59	288	4
STR	60	0	7
SCL	60	0	7	96	48	4
TAP	60	96	0
STR	60	144	0
SI_	60	144	0	96	48	4
TAP	60	240	7
TAP	60	288	7
TAP	61	0	1
TAP	61	0	6
TAP	61	96	2
TAP	61	144	1
TAP	61	144	3
TAP	61	240	4
TAP	61	240	6
TAP	61	336	3
TAP	61	336	7
TAP	62	48	0
STR	62	96	0
SCR	62	96	0	96	48	3
STR	62	192	4
SCR	62	192	4	96	48	7
TAP	62	288	0
TAP	63	0	0
TAP	63	96	0
TAP	63	96	6
TTP	63	192	0	B	0	M1
TTP	63	208	1	B	0	M1
TTP	63	224	2	B	0	M1
TTP	63	240	3	E	0	M1
TTP	63	256	3	B	0	M1
TTP	63	272	4	B	0	M1
TTP	63	288	5	B	0	M1
TAP	64	0	7
TAP	64	96	1
TAP	64	96	7
TTP	64	192	7	B	0	M1
TTP	64	208	6	B	0	M1
TTP	64	224	5	B	0	M1
TTP	64	240	5	E	0	M1
TTP	64	256	4	B	0	M1
TTP	64	272	3	B	0	M1
TTP	64	288	2	B	0	M1
XTP	65	0	0
XTP	65	96	0
XTP	65	96	6
TTP	65	192	0	B	0	M1
TTP	65	208	1	B	0	M1
TTP	65	224	2	B	0	M1
TTP	65	240	3	E	0	M1
TTP	65	256	3	B	0	M1
TTP	65	272	4	B	0	M1
TTP	65	288	5	B	0	M1
TAP	66	0	7
TAP	66	96	1
TAP	66	96	6
TAP	66	192	3
TAP	66	192	5
TAP	66	240	4
TAP	66	288	3
TAP	66	288	4
TAP	67	0	1
TAP	67	0	3
XTP	67	96	0
XTP	67	120	1
XTP	67	144	2
XTP	67	168	3
XTP	67	192	7
XTP	67	216	6
XTP	67	240	5
XTP	67	264	4
XTP	67	288	0
XTP	67	312	1
XTP	67	336	2
XTP	67	360	3
XTP	68	0	4
XTP	68	24	5
XTP	68	48	6
XTP	68	72	7
XTP	68	96	3
XTP	68	120	2
XTP	68	144	1
XTP	68	168	0
XTP	68	192	4
XTP	68	216	5
XTP	68	240	6
XTP	68	264	7
XTP	68	288	3
XTP	68	312	2
XTP	68	336	1
XTP	68	360	0
XTP	69	0	7
TAP	69	96	4
TAP	69	96	5
TAP	69	144	3
TAP	69	144	6
TAP	69	240	2
TAP	69	240	3
TAP	69	288	1
TAP	69	288	4
TAP	70	0	0
TAP	70	0	7
TAP	70	48	1
TAP	70	48	6
TAP	70	144	3
TAP	70	144	4
TAP	70	192	3
TAP	70	192	4
TAP	70	288	2
TAP	70	288	5
STR	71	0	0
SCR	71	0	0	96	192	3
TAP	71	96	4
TAP	71	192	5
TAP	71	288	6
STR	72	0	7
SCL	72	0	7	96	192	4
TAP	72	96	3
TAP	72	192	2
TAP	72	288	1
HLD	73	0	0	96
TAP	73	96	4
TAP	73	144	4
TAP	73	192	2
TAP	73	240	3
TAP	73	288	4
TAP	73	336	3
TAP	73	336	5
TAP	74	48	2
TAP	74	48	4
TAP	74	144	3
TAP	74	144	6
TAP	74	240	1
TAP	74	240	4
TAP	74	288	1
TAP	74	288	4
STR	75	0	3
SCL	75	0	3	96	192	0
TAP	75	96	7
TAP	75	192	6
TAP	75	288	5
STR	76	0	4
SCR	76	0	4	96	192	7
TAP	76	96	0
TAP	76	192	1
TAP	76	288	2
HLD	77	0	7	96
TAP	77	96	0
TAP	77	144	0
TAP	77	240	2
TAP	77	240	5
TAP	77	336	3
TAP	77	336	4
BRK	78	48	1
BRK	78	48	6
BST	78	96	1
SCR	78	96	1	96	192	7
BRK	78	96	6
TTP	78	192	0	C	1	M1
STR	83	0	7
SI_	83	0	7	96	288	4
STR	84	0	0
SI_	84	0	0	96	288	3
STR	85	0	4
SCR	85	0	4	96	192	7
TAP	85	192	3
TAP	85	288	2
STR	86	0	1
SI_	86	0	1	96	48	3
STR	86	0	6
SI_	86	0	6	96	48	4
XTP	86	96	1
XTP	86	96	6
STR	86	192	0
SCR	86	192	0	96	48	3
STR	86	192	7
SCL	86	192	7	96	48	4
XTP	86	288	0
XTP	86	288	7
HLD	87	0	2	96
TAP	87	0	5
HLD	87	96	0	96
HLD	87	192	7	96
STR	87	288	5
SCL	87	288	5	96	96	2
TAP	88	0	0
TAP	88	96	0
TAP	88	192	1
TAP	88	192	3
TAP	88	288	4
TAP	89	0	3
HLD	89	0	5	96
HLD	89	96	7	96
HLD	89	192	0	96
STR	89	288	2
SCR	89	288	2	96	96	5
TAP	90	0	7
TAP	90	96	7
TAP	90	192	4
TAP	90	192	6
TAP	90	288	3
STR	91	0	3
SCL	91	0	3	96	96	7
STR	91	96	7
SCL	91	96	7	96	96	3
TAP	91	192	3
TAP	91	288	7
STR	92	0	0
SCR	92	0	0	96	96	4
STR	92	96	4
SCR	92	96	4	96	96	0
TAP	92	192	0
TAP	92	288	4
TAP	93	0	0
TAP	93	0	7
TAP	93	96	5
TAP	93	144	4
TAP	93	144	6
TAP	93	240	1
TAP	93	240	3
TAP	93	336	2
TAP	93	336	6
TAP	94	48	0
TAP	94	48	4
TAP	94	144	5
STR	94	192	5
SCR	94	192	5	96	48	0
STR	94	288	1
SCR	94	288	1	96	48	4
HLD	95	0	7	672
TAP	95	192	6
TAP	95	288	4
TAP	96	0	0
TAP	96	96	3
TAP	96	192	6
STR	96	288	4
SCL	96	288	4	96	192	5
TTP	97	0	0	C	1	M1
XTP	98	0	0
XTP	98	0	7
XTP	98	48	1
XTP	98	48	6
XTP	98	96	2
XTP	98	96	5
XTP	98	144	3
XTP	98	144	4
TAP	98	192	3
TAP	98	192	4
TTP	98	288	0	B	0	M1
TTP	98	288	1	E	0	M1
TTP	98	288	7	B	0	M1
TTP	98	288	7	E	0	M1
STR	99	0	6
SI_	99	0	6	96	48	3
TAP	99	96	0
STR	99	192	1
SI_	99	192	1	96	48	4
TAP	99	288	7
STR	100	0	6
SI_	100	0	6	96	48	3
TAP	100	96	0
HLD	100	192	2	96
TAP	100	192	4
TAP	100	288	7
STR	101	0	1
SI_	101	0	1	96	48	4
TAP	101	96	7
STR	101	192	6
SI_	101	192	6	96	48	3
TAP	101	288	0
STR	102	0	1
SI_	102	0	1	96	48	4
TAP	102	96	7
TAP	102	192	3
HLD	102	192	5	96
TAP	102	288	0
STR	103	0	6
SI_	103	0	6	96	48	2
TAP	103	96	0
STR	103	192	1
SI_	103	192	1	96	48	5
TAP	103	288	7
STR	104	0	6
SI_	104	0	6	96	48	2
TAP	104	96	0
TAP	104	192	0
TAP	104	192	7
TAP	104	288	2
TAP	104	288	5
TAP	105	0	7
TAP	105	48	0
TAP	105	48	7
TTP	105	144	5	E	0	M1
TTP	105	144	5	B	0	M1
TTP	105	144	6	B	0	M1
TTP	105	240	1	B	0	M1
TTP	105	240	2	B	0	M1
TTP	105	240	3	E	0	M1
TTP	105	336	1	E	0	M1
TTP	105	336	7	E	0	M1
TTP	106	48	3	B	0	M1
TTP	106	48	3	E	0	M1
TTP	106	48	4	B	0	M1
TTP	106	48	5	E	0	M1
TAP	106	144	0
TAP	106	144	7
STR	106	192	0
SCR	106	192	0	96	48	3
STR	106	192	7
SCL	106	192	7	96	48	4
XTP	107	0	1
XST	107	0	6
SCL	107	0	6	96	192	1
TAP	107	192	0
TAP	107	288	0
XST	108	0	1
SCR	108	0	1	96	192	6
XTP	108	0	6
TAP	108	192	7
TAP	108	288	7
HLD	109	0	0	96
HLD	109	0	7	96
TTP	109	192	0	E	0	M1
TTP	109	240	0	C	0	M1
TTP	109	288	4	E	0	M1
TAP	110	0	0
TAP	110	0	7
TAP	110	48	2
TAP	110	48	5
TAP	110	96	3
TAP	110	96	4
BRK	110	144	1
BRK	110	144	6

T_REC_TAP	323
T_REC_BRK	6
T_REC_XTP	49
T_REC_HLD	45
T_REC_XHO	0
T_REC_STR	82
T_REC_BST	2
T_REC_XST	2
T_REC_TTP	66
T_REC_THO	0
T_REC_SLD	86
T_REC_ALL	661
T_NUM_TAP	522
T_NUM_BRK	8
T_NUM_HLD	45
T_NUM_SLD	86
T_NUM_ALL	661
T_JUDGE_TAP	530
T_JUDGE_HLD	130
T_JUDGE_SLD	86
T_JUDGE_ALL	746
TTM_EACHPAIRS	116
TTM_SCR_TAP	261000
TTM_SCR_BRK	20800
TTM_SCR_HLD	45000
TTM_SCR_SLD	129000
TTM_SCR_ALL	455800
TTM_SCR_S	441350
TTM_SCR_SS	455000
TTM_RAT_ACV	10017

