VERSION	0.00.00	1.03.00
FES_MODE	0
BPM_DEF	190.000	190.000	190.000	190.000
MET_DEF	4	4
RESOLUTION	384
CLK_DEF	384
COMPATIBLE_CODE	MA2

BPM	0	0	190.000
MET	0	0	4	4
CLK	0	0
CLK	0	96
CLK	0	192
CLK	0	288

TTP	2	0	2	E	0	M1
TTP	2	192	3	E	0	M1
TTP	3	0	4	E	0	M1
TTP	3	192	5	E	0	M1
TTP	4	0	6	E	0	M1
TTP	4	192	5	E	0	M1
TTP	5	0	4	E	0	M1
TTP	5	192	3	E	0	M1
TTP	6	0	2	E	0	M1
TTP	6	192	0	C	0	M1
STR	7	0	5
SCL	7	0	5	96	192	2
TAP	8	0	3
TAP	8	96	3
TAP	8	192	4
TAP	8	288	4
TAP	9	0	2
TAP	9	0	3
TAP	9	96	4
TAP	9	96	5
TAP	9	192	3
TAP	9	192	4
BRK	9	288	1
BRK	9	288	6
TAP	10	0	5
TAP	10	96	4
TAP	10	192	3
TAP	10	288	2
TAP	11	0	1
TAP	11	96	0
TAP	11	192	1
TAP	11	192	7
TAP	11	288	2
HLD	12	0	3	96
TAP	12	96	4
HLD	12	192	5	96
TAP	12	288	4
HLD	13	0	2	96
TAP	13	96	3
HLD	13	192	4	96
TAP	13	288	3
TAP	14	0	2
TAP	14	96	3
TAP	14	192	4
TAP	14	288	5
TAP	15	0	6
TAP	15	96	7
TAP	15	192	0
TAP	15	192	6
STR	15	288	5
SXL	15	288	5	96	288	2
XHO	17	0	1	96
XHO	17	0	3	96
XTP	17	144	1
XTP	17	144	3
TAP	17	288	2
TAP	18	96	2
TAP	18	288	2
TAP	19	0	5
TAP	19	96	4
TAP	19	96	5
TAP	19	192	2
TAP	19	288	2
TAP	19	288	3
TAP	20	0	5
TAP	20	96	4
TAP	20	96	6
TAP	20	192	2
TAP	20	288	1
TAP	20	288	3
XHO	21	0	4	96
XHO	21	0	6	96
XTP	21	144	4
XTP	21	144	6
TAP	21	288	5
TAP	22	96	5
TAP	22	288	5
TAP	23	0	2
TAP	23	96	2
TAP	23	96	3
TAP	23	192	5
TAP	23	288	4
TAP	23	288	5
TAP	24	0	2
TAP	24	96	1
TAP	24	96	3
TAP	24	192	5
TAP	24	288	4
TAP	24	288	6
TAP	25	0	2
TAP	25	96	3
TAP	25	192	2
TAP	25	288	1
TAP	25	288	4
TAP	26	0	0
TAP	26	96	7
TAP	26	192	0
TAP	26	288	1
TAP	26	288	6
STR	27	0	5
SI_	27	0	5	96	48	3
STR	27	192	1
SI_	27	192	1	96	48	7
STR	28	0	5
SI_	28	0	5	96	48	1
TAP	28	192	3
TAP	28	288	3
TAP	29	0	5
TAP	29	96	4
TAP	29	192	5
TAP	29	288	3
TAP	29	288	6
TAP	30	0	7
TAP	30	96	0
TAP	30	192	7
TAP	30	288	1
TAP	30	288	6
STR	31	0	2
SCL	31	0	2	96	48	7
STR	31	192	6
SCL	31	192	6	96	48	3
STR	32	0	2
SCL	32	0	2	96	192	5
HLD	33	0	4	192
TAP	33	192	3
TAP	33	288	4
TAP	33	288	5
HLD	34	0	3	192
TAP	34	192	4
TAP	34	288	2
TAP	34	288	3
TAP	35	0	1
TAP	35	96	0
TAP	35	96	1
TAP	35	192	6
TAP	35	288	6
TAP	35	288	7
TAP	36	0	5
TAP	36	96	4
TAP	36	192	3
XTP	36	288	2
XTP	36	288	5
HLD	37	0	3	192
TAP	37	192	4
TAP	37	288	2
TAP	37	288	3
HLD	38	0	4	192
TAP	38	192	3
TAP	38	288	4
TAP	38	288	5
TAP	39	0	2
TAP	39	0	3
TAP	39	96	3
TAP	39	96	4
TAP	39	144	3
TAP	39	144	4
TAP	39	240	2
TAP	39	240	5
TTP	39	336	0	C	1	M1
XTP	40	48	0
XTP	40	48	7
XTP	40	96	0
XTP	40	96	7
BRK	41	0	0
TAP	41	96	1
TAP	41	96	7
TAP	41	192	2
TAP	41	192	6
STR	41	288	3
SCL	41	288	3	96	96	0
TAP	41	288	5
XTP	42	0	4
TAP	42	192	0
TAP	42	288	2
TAP	43	0	4
TAP	43	96	3
TAP	43	96	5
TAP	43	192	2
TAP	43	192	6
TAP	43	288	1
STR	43	288	7
SCL	43	288	7	96	96	4
XTP	44	0	0
TAP	44	192	2
STR	44	288	2
SCL	44	288	2	96	96	7
XTP	45	0	3
TAP	45	192	5
STR	45	288	5
SCR	45	288	5	96	96	0
XTP	46	0	4
TAP	46	192	1
TAP	46	288	0
STR	46	288	1
SUR	46	288	1	96	96	5
XTP	47	0	7
TAP	47	192	6
STR	47	288	6
SUL	47	288	6	96	96	2
TAP	47	288	7
XTP	48	0	0
TAP	48	192	2
TAP	48	288	1
TAP	49	0	0
TAP	49	96	7
TAP	49	192	0
TAP	49	192	6
STR	49	288	1
SCR	49	288	1	96	96	4
TAP	49	288	5
TAP	50	192	5
TAP	50	288	6
TAP	51	0	7
TAP	51	96	0
TAP	51	192	1
TAP	51	192	7
TAP	51	288	2
STR	51	288	6
SCL	51	288	6	96	96	3
TAP	52	192	2
STR	52	288	3
SI_	52	288	3	96	96	0
STR	52	288	4
SI_	52	288	4	96	96	7
TAP	53	192	1
TAP	53	192	6
TAP	53	288	1
TAP	53	288	6
XTP	54	0	2
XTP	54	0	3
XTP	54	96	4
XTP	54	96	5
XTP	54	192	3
XTP	54	192	4
XTP	54	288	2
XTP	54	288	5
BST	55	0	0
SXL	55	0	0	96	528	3
BST	55	0	7
SXR	55	0	7	96	528	4
TAP	57	0	4
TAP	57	96	3
TAP	57	96	4
TAP	57	192	2
TAP	57	288	2
TAP	57	288	3
TAP	58	0	5
TAP	58	96	4
TAP	58	96	5
TAP	58	192	3
TAP	58	288	3
TAP	58	288	4
TAP	59	0	5
TAP	59	96	4
TAP	59	192	5
TAP	59	288	3
TAP	59	288	6
TAP	60	0	2
TAP	60	96	3
TAP	60	192	2
TAP	60	288	1
TAP	60	288	4
XHO	61	0	3	96
XHO	61	0	6	96
XTP	61	144	3
XTP	61	144	6
XTP	61	240	2
XTP	61	240	5
XTP	61	336	1
XST	61	336	4
SUL	61	336	4	96	240	3
TAP	63	0	1
TAP	63	96	0
TAP	63	192	1
XTP	63	288	2
XTP	63	288	7
TAP	64	0	6
TAP	64	96	7
TAP	64	192	6
XTP	64	288	0
XTP	64	288	5
TAP	65	0	4
TAP	65	96	3
TAP	65	192	4
XTP	65	288	2
XTP	65	288	5
TAP	66	0	6
XTP	66	96	6
XTP	66	96	7
TAP	66	192	1
XTP	66	288	0
XTP	66	288	1
BST	67	0	2
SXL	67	0	2	96	384	5
TAP	68	192	4
TAP	68	288	3
XHO	69	0	2	96
XHO	69	0	4	96
XHO	69	144	3	96
XHO	69	144	5	96
XHO	69	288	1	96
XHO	69	288	4	96
XTP	70	48	3
XST	70	48	6
SCR	70	48	6	96	144	1
HLD	71	0	3	192
TAP	71	192	4
TAP	71	288	2
TAP	71	288	3
HLD	72	0	4	192
TAP	72	192	3
TAP	72	288	4
TAP	72	288	5
TAP	73	0	6
TAP	73	96	6
TAP	73	96	7
TAP	73	192	1
TAP	73	288	0
TAP	73	288	1
TAP	74	0	2
TAP	74	96	3
TAP	74	192	4
XTP	74	288	2
XTP	74	288	5
HLD	75	0	4	192
TAP	75	192	3
TAP	75	288	4
TAP	75	288	5
HLD	76	0	3	192
TAP	76	192	4
TAP	76	288	2
TAP	76	288	3
TAP	77	0	4
TAP	77	0	5
TAP	77	96	3
TAP	77	96	4
TAP	77	144	3
TAP	77	144	4
TAP	77	240	2
TAP	77	240	5
TTP	77	336	0	C	1	M1
XTP	78	48	0
XTP	78	48	7
XTP	78	96	0
XTP	78	96	7
TTP	79	0	0	E	0	M1
TTP	80	0	0	C	0	M1
TTP	81	0	4	E	0	M1
TTP	81	192	3	E	0	M1
TTP	82	0	5	E	0	M1
TTP	82	192	1	E	0	M1
TTP	82	288	2	E	0	M1
TTP	83	0	3	E	0	M1
TTP	83	192	7	E	0	M1
TTP	83	288	6	E	0	M1
TTP	84	0	5	E	0	M1
TTP	84	192	0	E	0	M1
TTP	84	288	0	C	0	M1
TTP	85	0	4	E	0	M1
TAP	85	192	3
TAP	85	288	4
TAP	86	0	2
TAP	86	0	3
TAP	86	96	4
TAP	86	96	5
TAP	86	192	3
TAP	86	192	4
BRK	86	288	1
BRK	86	288	6
TAP	87	0	7
TAP	87	96	0
TAP	87	96	6
TAP	87	192	1
TAP	87	192	5
TAP	87	288	2
STR	87	288	4
SCR	87	288	4	96	96	7
XTP	88	0	3
TAP	88	192	7
TAP	88	288	5
TAP	89	0	3
TAP	89	96	2
TAP	89	96	4
TAP	89	192	1
TAP	89	192	5
STR	89	288	0
SCR	89	288	0	96	96	3
TAP	89	288	6
XTP	90	0	7
TAP	90	192	5
STR	90	288	5
SCR	90	288	5	96	96	0
XTP	91	0	4
TAP	91	192	2
STR	91	288	2
SCL	91	288	2	96	96	7
XTP	92	0	3
TAP	92	192	5
TAP	92	288	4
TAP	92	288	5
XHO	93	0	3	96
XHO	93	0	6	96
XTP	93	144	3
XTP	93	144	6
XTP	93	240	2
XTP	93	240	5
XTP	93	336	1
STR	93	336	4
SI_	93	336	4	96	96	7
TAP	94	192	1
STR	94	288	0
SCL	94	288	0	96	96	5
TAP	94	288	1
TAP	95	192	6
TAP	95	288	6
STR	95	288	7
SCR	95	288	7	96	96	2
TAP	96	192	3
TAP	96	192	4
STR	96	288	3
SUR	96	288	3	96	288	1
STR	96	288	4
SUL	96	288	4	96	288	6
XTP	98	0	0
XTP	98	0	7
XTP	98	48	0
XTP	98	48	7
XTP	98	96	0
XTP	98	96	7
XTP	98	144	0
XTP	98	144	7
TAP	99	0	2
TAP	99	96	3
TAP	99	192	4
TAP	99	288	5
STR	100	0	6
SI_	100	0	6	96	48	3
TAP	100	0	7
TAP	100	192	2
TAP	100	288	1
TAP	100	288	3
TAP	101	0	5
TAP	101	96	4
TAP	101	192	3
TAP	101	288	2
TAP	102	0	0
STR	102	0	1
SI_	102	0	1	96	48	4
TAP	102	192	5
TAP	102	288	4
STR	102	288	6
SCR	102	288	6	96	96	1
TAP	103	192	2
TAP	103	288	1
TAP	103	288	3
TAP	104	0	5
TAP	104	96	4
TAP	104	96	6
TAP	104	192	7
TAP	104	288	0
TAP	104	288	7
XHO	105	0	1	96
XHO	105	0	6	96
XTP	105	144	1
XTP	105	144	6
XTP	105	240	2
XTP	105	240	5
XST	105	336	3
SCL	105	336	3	96	240	0
XST	105	336	4
SCR	105	336	4	96	240	7
XHO	107	0	1	192
XHO	107	0	6	192
XTP	108	0	2
TAP	108	96	3
TAP	108	192	4
TAP	108	288	5
XST	109	0	2
SCR	109	0	2	96	192	5
XST	109	0	6
SCR	109	0	6	96	192	1
XTP	110	0	1
XTP	110	0	6
XTP	110	48	1
XTP	110	48	6
XTP	110	96	1
XTP	110	96	6
BRK	110	144	1
BRK	110	144	6

T_REC_TAP	274
T_REC_BRK	7
T_REC_XTP	74
T_REC_HLD	12
T_REC_XHO	18
T_REC_STR	30
T_REC_BST	3
T_REC_XST	6
T_REC_TTP	26
T_REC_THO	0
T_REC_SLD	39
T_REC_ALL	489
T_NUM_TAP	410
T_NUM_BRK	10
T_NUM_HLD	30
T_NUM_SLD	39
T_NUM_ALL	489
T_JUDGE_TAP	420
T_JUDGE_HLD	80
T_JUDGE_SLD	39
T_JUDGE_ALL	539
TTM_EACHPAIRS	127
TTM_SCR_TAP	205000
TTM_SCR_BRK	26000
TTM_SCR_HLD	30000
TTM_SCR_SLD	58500
TTM_SCR_ALL	319500
TTM_SCR_S	308950
TTM_SCR_SS	318500
TTM_RAT_ACV	10031

