VERSION	0.00.00	1.03.00
FES_MODE	0
BPM_DEF	190.000	190.000	190.000	190.000
MET_DEF	4	4
RESOLUTION	384
CLK_DEF	384
COMPATIBLE_CODE	MA2

BPM	0	0	190.000
MET	0	0	4	4

TTP	2	0	2	B	0	L1
TTP	3	0	4	E	0	L1
TTP	4	0	5	B	0	L1
TTP	5	0	4	E	0	L1
TTP	6	0	2	B	0	L1
TTP	7	0	0	C	0	L1
TAP	8	0	1
TAP	8	96	1
TAP	8	192	0
TAP	8	288	0
TAP	9	0	7
TAP	9	96	7
XTP	9	192	0
XTP	9	192	6
TAP	10	0	6
TAP	10	96	5
TAP	10	192	4
TAP	10	288	3
TAP	11	0	2
TAP	11	96	1
XTP	11	192	0
XTP	11	192	7
TAP	12	0	6
TAP	12	96	6
TAP	12	192	7
TAP	12	288	7
TAP	13	0	0
TAP	13	96	0
XTP	13	192	1
XTP	13	192	7
TAP	14	0	1
TAP	14	96	2
TAP	14	192	3
TAP	14	288	4
TAP	15	0	5
TAP	15	96	6
XTP	15	192	7
XTP	15	288	0
XTP	15	288	7
BRK	16	0	1
BRK	16	0	6
HLD	17	0	5	192
TAP	17	192	4
HLD	18	0	3	192
TAP	18	192	4
TAP	19	0	5
TAP	19	96	5
TAP	19	192	4
TAP	19	288	4
TAP	20	0	3
TAP	20	96	2
XTP	20	192	2
XTP	20	192	3
HLD	21	0	2	192
TAP	21	192	3
HLD	22	0	4	192
TAP	22	192	3
TAP	23	0	2
TAP	23	96	2
TAP	23	192	3
TAP	23	288	3
TAP	24	0	4
TAP	24	96	5
XTP	24	192	4
XTP	24	192	5
HLD	25	0	5	192
TAP	25	192	4
HLD	26	0	2	192
TAP	26	192	3
TAP	27	0	5
TAP	27	96	5
TAP	27	192	4
TAP	27	288	4
TAP	28	0	3
TAP	28	96	2
XTP	28	192	1
XTP	28	192	3
HLD	29	0	2	192
TAP	29	192	3
HLD	30	0	5	192
TAP	30	192	4
TAP	31	0	2
TAP	31	96	2
TAP	31	192	1
TAP	31	288	1
TAP	32	0	0
TAP	32	96	7
XTP	32	192	1
XTP	32	192	6
STR	33	0	7
SI_	33	0	7	96	288	4
XTP	34	192	3
STR	35	0	3
SXR	35	0	3	96	528	0
STR	37	0	7
SCL	37	0	7	96	288	4
XTP	38	192	3
XTP	39	0	3
XTP	39	0	4
XTP	39	96	3
XTP	39	96	4
XTP	39	192	2
XTP	39	192	5
XTP	39	288	2
XTP	39	288	5
XTP	40	0	1
XTP	40	0	6
TAP	40	192	1
TAP	40	288	1
TAP	41	0	0
TAP	41	0	1
TAP	41	96	0
TAP	41	96	1
TAP	41	192	7
TAP	41	288	7
XTP	42	0	0
XTP	42	0	6
TAP	42	192	5
TAP	42	288	4
TAP	43	0	3
TAP	43	96	2
TAP	43	192	3
TAP	43	288	4
XTP	44	0	2
XTP	44	0	5
TAP	44	192	6
TAP	44	288	6
TAP	45	0	6
TAP	45	0	7
TAP	45	96	6
TAP	45	96	7
TAP	45	192	0
TAP	45	288	0
XTP	46	0	1
XTP	46	0	7
TAP	46	192	2
TAP	46	288	3
TAP	47	0	4
TAP	47	96	5
TAP	47	192	4
TAP	47	288	3
XTP	48	0	2
XTP	48	0	5
TAP	48	192	6
TAP	48	288	5
TAP	49	0	4
TAP	49	96	4
TAP	49	192	3
TAP	49	288	3
XTP	50	0	2
XTP	50	0	4
TAP	50	192	1
TAP	50	288	2
TAP	51	0	3
TAP	51	96	3
TAP	51	192	4
TAP	51	288	4
XTP	52	0	3
XTP	52	0	5
TAP	52	192	6
TAP	52	288	7
XTP	53	0	0
XTP	53	96	0
TAP	53	192	1
TAP	53	288	0
XTP	54	0	7
XTP	54	96	7
XTP	54	192	0
XTP	54	192	7
XTP	54	288	0
XTP	54	288	7
BRK	55	0	1
BST	55	0	6
SCL	55	0	6	96	384	2
TTP	57	0	1	B	0	L1
TTP	57	192	0	C	0	L1
TTP	58	0	5	B	0	L1
TTP	59	0	6	B	0	L1
TTP	59	192	0	C	0	L1
TTP	60	0	2	B	0	L1
TTP	60	192	1	B	0	L1
TTP	61	0	0	C	0	L1
TTP	61	192	5	B	0	L1
TTP	62	0	0	C	0	L1
TTP	63	0	1	E	0	L1
TTP	63	192	0	C	0	L1
TTP	64	0	5	E	0	L1
TTP	65	0	6	E	0	L1
TTP	65	192	0	C	0	L1
TTP	66	0	2	E	0	L1
TTP	67	0	1	E	0	L1
TTP	67	192	0	C	0	L1
TTP	68	0	5	E	0	L1
TTP	68	192	6	E	0	L1
THO	69	0	0	384	C	1	L1
STR	71	0	0
SI_	71	0	0	96	288	3
XTP	72	192	4
STR	73	0	5
SI_	73	0	5	96	288	0
XTP	74	192	1
STR	75	0	2
SI_	75	0	2	96	288	7
XTP	76	192	6
XTP	76	288	6
TAP	77	0	7
TAP	77	96	7
TAP	77	192	0
TAP	77	192	7
TAP	77	288	0
TAP	77	288	7
XTP	78	0	1
XTP	78	0	6
HLD	79	0	2	768
HLD	81	0	3	768
HLD	83	0	4	384
TAP	84	0	5
XTP	85	0	3
XTP	85	0	4
XTP	85	192	2
XTP	85	192	5
BRK	86	0	1
BRK	86	0	6
XTP	86	192	0
XTP	86	288	0
TAP	87	0	7
TAP	87	96	6
TAP	87	192	4
TAP	87	192	5
TAP	87	288	4
TAP	87	288	5
XTP	88	0	3
XTP	88	0	6
TAP	88	192	2
TAP	88	288	3
TAP	89	0	4
TAP	89	96	5
TAP	89	192	6
TAP	89	288	6
TAP	89	288	7
XTP	90	0	0
XTP	90	0	5
XTP	90	192	7
XTP	90	288	7
TAP	91	0	0
TAP	91	96	1
TAP	91	192	2
TAP	91	288	3
TAP	92	0	4
TAP	92	96	5
STR	92	192	6
SXR	92	192	6	96	576	2
XTP	94	192	1
XTP	94	288	1
BRK	95	0	0
BRK	95	0	1
XTP	95	192	7
XTP	95	288	7
BRK	96	0	0
BRK	96	0	7
BST	96	192	1
SCL	96	192	1	96	672	2
BRK	96	192	6
TAP	99	0	1
TAP	99	96	2
HLD	99	192	3	192
TAP	100	0	4
TAP	100	96	5
HLD	100	192	6	192
TAP	101	0	7
TAP	101	96	7
TAP	101	192	0
TAP	101	288	0
XTP	102	0	1
XTP	102	0	7
TAP	102	192	6
TAP	102	288	5
HLD	103	0	4	192
TAP	103	192	3
TAP	103	288	2
HLD	104	0	1	192
TAP	104	192	0
STR	104	288	0
SCR	104	288	0	96	480	5
TTP	107	0	3	B	0	L1
TTP	107	0	4	B	0	L1
TTP	108	0	2	B	0	L1
TTP	108	0	5	B	0	L1
THO	109	0	0	528	C	0	L1

T_REC_TAP	139
T_REC_BRK	10
T_REC_XTP	73
T_REC_HLD	15
T_REC_XHO	0
T_REC_STR	8
T_REC_BST	2
T_REC_XST	0
T_REC_TTP	30
T_REC_THO	2
T_REC_SLD	10
T_REC_ALL	289
T_NUM_TAP	250
T_NUM_BRK	12
T_NUM_HLD	17
T_NUM_SLD	10
T_NUM_ALL	289
T_JUDGE_TAP	262
T_JUDGE_HLD	107
T_JUDGE_SLD	10
T_JUDGE_ALL	379
TTM_EACHPAIRS	42
TTM_SCR_TAP	125000
TTM_SCR_BRK	31200
TTM_SCR_HLD	17000
TTM_SCR_SLD	15000
TTM_SCR_ALL	188200
TTM_SCR_S	181400
TTM_SCR_SS	187000
TTM_RAT_ACV	10064

