VERSION	0.00.00	1.03.00
FES_MODE	0
BPM_DEF	190.000	190.000	190.000	190.000
MET_DEF	4	4
RESOLUTION	384
CLK_DEF	384
COMPATIBLE_CODE	MA2

BPM	0	0	190.000
MET	0	0	4	4

TAP	10	0	0
TAP	11	0	0
HLD	12	0	0	384
TAP	14	0	7
TAP	15	0	7
XTP	16	0	0
XTP	16	0	7
HLD	17	0	0	384
TAP	19	0	1
TAP	20	0	1
HLD	21	0	2	384
TAP	23	0	3
XTP	24	0	3
HLD	25	0	4	384
TAP	27	0	5
TAP	28	0	5
HLD	29	0	6	384
TAP	31	0	7
BRK	32	0	0
BRK	32	0	7
TTP	33	0	0	E	0	L1
TTP	34	0	7	E	0	L1
TTP	35	0	6	E	0	L1
TTP	36	0	5	E	0	L1
TTP	37	0	4	E	0	L1
TTP	38	0	2	B	0	L1
TTP	38	0	5	B	0	L1
THO	39	0	0	336	C	1	L1
TAP	41	0	7
TAP	41	192	7
TAP	42	0	7
TAP	43	0	6
TAP	43	192	6
TAP	44	0	6
TAP	45	0	5
TAP	45	192	5
TAP	46	0	4
TAP	46	192	4
TAP	47	0	3
TAP	47	192	3
XTP	48	0	3
XTP	48	0	4
TAP	49	0	3
TAP	49	192	3
TAP	50	0	3
TAP	51	0	2
TAP	51	192	2
TAP	52	0	2
TAP	53	0	1
TAP	53	192	1
TAP	54	0	0
TAP	54	192	0
STR	55	0	7
SI_	55	0	7	96	288	4
STR	57	0	0
SI_	57	0	0	96	288	3
TAP	59	0	7
TAP	60	0	0
TAP	60	0	7
HLD	61	0	0	336
STR	63	0	0
SI_	63	0	0	96	288	3
STR	65	0	7
SI_	65	0	7	96	288	4
TAP	67	0	0
TAP	67	192	0
TAP	68	0	7
TAP	68	192	7
BRK	69	0	0
BRK	69	0	7
TAP	71	0	0
TAP	72	0	0
STR	73	0	1
SI_	73	0	1	96	288	5
TAP	75	0	6
TAP	76	0	0
TAP	76	0	7
XHO	77	0	1	336
XHO	77	0	6	336
TTP	79	0	6	B	0	L1
TTP	80	0	7	B	0	L1
TTP	81	0	0	B	0	L1
TTP	82	0	1	B	0	L1
TTP	83	0	0	B	0	L1
TTP	83	0	7	B	0	L1
TTP	84	0	1	B	0	L1
TTP	84	0	6	B	0	L1
THO	85	0	0	384	C	1	L1
TAP	87	0	0
TAP	87	192	0
TAP	88	0	1
TAP	88	192	1
TAP	89	0	2
TAP	89	192	2
XTP	90	0	2
XTP	90	0	3
TAP	91	0	4
TAP	91	192	4
TAP	92	0	5
TAP	92	192	5
XHO	93	0	4	384
XHO	93	0	5	384
TAP	95	0	5
TAP	95	192	5
TAP	96	0	4
TAP	96	192	4
XST	97	0	3
SI_	97	0	3	96	288	0
TAP	99	0	7
TAP	99	192	7
TAP	100	0	7
TAP	101	0	0
TAP	101	192	0
TAP	102	0	0
TAP	103	0	1
TAP	103	192	1
TAP	104	0	1
STR	105	0	1
SI_	105	0	1	96	288	4
TAP	107	0	5
TAP	107	192	5
TAP	108	0	6
TAP	108	192	6
STR	109	0	7
SI_	109	0	7	96	288	3

T_REC_TAP	71
T_REC_BRK	4
T_REC_XTP	7
T_REC_HLD	6
T_REC_XHO	4
T_REC_STR	7
T_REC_BST	0
T_REC_XST	1
T_REC_TTP	15
T_REC_THO	2
T_REC_SLD	8
T_REC_ALL	125
T_NUM_TAP	101
T_NUM_BRK	4
T_NUM_HLD	12
T_NUM_SLD	8
T_NUM_ALL	125
T_JUDGE_TAP	105
T_JUDGE_HLD	92
T_JUDGE_SLD	8
T_JUDGE_ALL	205
TTM_EACHPAIRS	9
TTM_SCR_TAP	50500
TTM_SCR_BRK	10400
TTM_SCR_HLD	12000
TTM_SCR_SLD	12000
TTM_SCR_ALL	84900
TTM_SCR_S	82000
TTM_SCR_SS	84500
TTM_RAT_ACV	10047

