VERSION	0.00.00	1.03.00
FES_MODE	0
BPM_DEF	240.000	240.000	240.000	240.000
MET_DEF	4	4
RESOLUTION	384
CLK_DEF	384
COMPATIBLE_CODE	MA2

BPM	0	0	240.000
MET	0	0	4	4

TTP	2	0	0	C	1	M1
TTP	2	0	6	E	0	M1
TTP	2	288	0	C	1	M1
TTP	2	288	2	E	0	M1
TTP	3	192	0	E	0	M1
TTP	3	192	0	C	1	M1
TAP	4	96	5
TAP	4	192	6
TAP	4	288	7
TAP	4	336	0
TTP	5	96	0	E	0	M1
TTP	5	192	0	C	0	M1
TTP	5	288	4	E	0	M1
TAP	6	0	2
TAP	6	0	3
TAP	6	96	1
TAP	6	96	4
TAP	6	192	2
TAP	6	240	3
TTP	6	336	1	E	0	M1
TTP	6	336	3	E	0	M1
TTP	7	48	4	E	0	M1
TTP	7	48	6	E	0	M1
TTP	7	144	1	E	0	M1
TTP	7	144	3	E	0	M1
TAP	7	240	7
TAP	7	288	7
TAP	8	0	4
TAP	8	0	5
TAP	8	96	3
TAP	8	96	6
TAP	8	192	5
TAP	8	240	4
TTP	8	336	5	E	0	M1
TTP	8	336	7	E	0	M1
TTP	9	48	2	E	0	M1
TTP	9	48	4	E	0	M1
TTP	9	144	5	E	0	M1
TTP	9	144	7	E	0	M1
TAP	9	240	0
TAP	9	288	0
TAP	10	0	2
TAP	10	0	7
TAP	10	96	3
TAP	10	96	6
TAP	10	192	5
TAP	10	240	4
TAP	10	336	3
HLD	10	336	6	144
HLD	11	96	4	96
HLD	11	192	3	96
TAP	11	288	1
TAP	12	0	2
TAP	12	96	3
TAP	12	192	5
TAP	12	240	4
BRK	12	336	3
BRK	12	336	7
TTP	13	96	0	E	0	M1
TTP	13	192	2	E	0	M1
TTP	13	288	4	E	0	M1
TAP	14	0	4
TAP	14	0	5
TAP	14	96	3
TAP	14	96	6
TAP	14	192	5
TAP	14	240	4
TTP	14	336	5	E	0	M1
TTP	14	336	7	E	0	M1
TTP	15	48	2	E	0	M1
TTP	15	48	4	E	0	M1
TTP	15	144	5	E	0	M1
TTP	15	144	7	E	0	M1
TAP	15	240	0
TAP	15	288	0
TAP	16	0	2
TAP	16	0	3
TAP	16	96	1
TAP	16	96	4
TAP	16	192	2
TAP	16	240	3
TTP	16	336	1	E	0	M1
TTP	16	336	3	E	0	M1
TTP	17	48	4	E	0	M1
TTP	17	48	6	E	0	M1
TTP	17	144	1	E	0	M1
TTP	17	144	3	E	0	M1
TAP	17	240	7
TAP	17	288	7
TAP	18	0	0
TAP	18	0	5
TAP	18	96	1
TAP	18	96	4
TAP	18	192	2
TAP	18	240	3
HLD	18	336	1	144
TAP	18	336	4
HLD	19	96	2	96
HLD	19	192	3	96
TAP	19	288	4
TAP	20	0	4
TAP	20	0	5
TAP	20	96	3
TAP	20	96	4
TAP	20	192	2
TAP	20	240	3
TAP	20	336	1
TAP	20	336	4
TAP	21	48	2
TAP	21	48	5
TAP	21	144	5
TAP	21	192	4
TAP	21	288	3
TAP	21	288	6
TAP	22	0	2
TAP	22	0	7
TAP	22	96	1
TAP	22	96	6
TAP	22	192	2
TAP	22	240	3
TAP	22	336	0
TAP	22	336	5
TTP	23	96	5	E	0	M1
TTP	23	192	4	E	0	M1
TTP	23	288	3	E	0	M1
STR	24	0	2
SCL	24	0	2	96	96	7
TAP	24	192	4
TAP	24	288	5
STR	25	0	5
SCR	25	0	5	96	96	0
TAP	25	192	3
TAP	25	288	2
HLD	26	0	2	96
HLD	26	192	0	96
HLD	26	192	1	96
HLD	27	0	6	96
HLD	27	0	7	96
HLD	27	192	5	96
STR	28	0	5
SCR	28	0	5	96	96	0
TAP	28	192	3
TAP	28	288	2
STR	29	0	2
SCL	29	0	2	96	96	7
TAP	29	192	4
TAP	29	288	5
HLD	30	0	4	96
HLD	30	0	6	96
HLD	30	192	2	96
HLD	30	192	3	96
HLD	31	0	4	96
HLD	31	0	5	96
HLD	31	192	1	96
HLD	31	192	3	96
STR	32	0	1
SCR	32	0	1	96	96	4
TAP	32	192	7
TAP	32	288	6
STR	33	0	6
SCL	33	0	6	96	96	3
TAP	33	192	0
TAP	33	288	1
STR	34	0	2
SCR	34	0	2	96	96	5
HLD	34	96	7	192
TAP	34	288	0
HLD	35	0	1	144
HLD	35	144	2	144
STR	35	288	3
SCL	35	288	3	96	288	6
TAP	36	0	6
TAP	36	192	4
TAP	36	288	4
HLD	37	0	5	96
TAP	37	96	4
HLD	37	192	3	96
TAP	37	288	4
HLD	38	0	6	96
TAP	38	96	4
HLD	38	192	2	96
TAP	38	288	4
HLD	39	0	7	96
TAP	39	96	4
TAP	39	192	2
TAP	39	192	6
STR	39	288	3
SCL	39	288	3	96	96	0
TAP	39	288	5
THO	40	0	0	672	C	0	M1
XST	40	336	0
SCL	40	336	0	96	48	5
XST	41	192	0
SCR	41	192	0	96	48	3
TAP	42	0	0
TAP	42	96	3
TAP	42	192	2
TAP	42	288	1
TAP	42	336	1
TAP	43	96	0
TAP	43	96	6
TAP	43	192	1
TAP	43	192	5
TAP	43	288	2
STR	43	288	4
SCR	43	288	4	96	96	7
THO	44	0	0	672	C	0	M1
XST	44	336	7
SCR	44	336	7	96	48	2
XST	45	192	7
SCL	45	192	7	96	48	4
TAP	46	0	7
TAP	46	96	4
TAP	46	192	5
TAP	46	288	6
TAP	46	336	6
TAP	47	96	1
TAP	47	96	7
TAP	47	192	2
TAP	47	192	6
STR	47	288	3
SCL	47	288	3	96	96	0
TAP	47	288	5
THO	48	0	0	672	C	0	M1
XST	48	336	0
SCL	48	336	0	96	48	5
XST	49	192	0
SCR	49	192	0	96	48	3
TAP	50	0	0
TAP	50	96	3
TAP	50	192	2
TAP	50	288	1
TAP	50	336	1
TTP	51	96	7	E	0	M1
TTP	51	192	3	E	0	M1
TTP	51	288	0	C	0	M1
TAP	52	0	1
STR	52	96	7
SCL	52	96	7	96	96	4
TAP	52	192	3
TAP	52	288	2
TAP	53	0	6
STR	53	96	0
SCR	53	96	0	96	96	3
TAP	53	192	5
STR	53	288	4
SSL	53	288	4	96	192	0
TAP	54	0	3
TAP	54	288	3
TAP	55	0	2
TAP	55	0	6
TAP	55	96	1
TAP	55	96	5
TAP	55	192	0
TAP	55	192	4
TAP	55	288	1
TAP	55	288	4
TAP	56	0	3
TAP	56	0	4
TAP	56	96	2
TAP	56	96	5
TAP	56	192	1
TAP	56	192	6
TAP	56	288	0
TAP	56	336	7
TTP	57	96	0	E	0	M1
TTP	57	192	0	C	0	M1
TTP	57	288	4	E	0	M1
STR	58	0	1
SI_	58	0	1	96	96	4
TAP	58	0	6
TAP	58	96	4
STR	58	192	5
SI_	58	192	5	96	96	0
TAP	58	288	0
TAP	59	0	1
TAP	59	96	2
TAP	59	144	1
TAP	59	144	3
TAP	59	240	5
TAP	59	288	4
TAP	59	288	6
TAP	60	0	6
TAP	60	0	7
TAP	60	96	0
TAP	60	96	1
TAP	60	192	2
TAP	60	192	3
TAP	60	288	4
TAP	60	288	5
STR	61	0	7
SI_	61	0	7	96	96	3
TAP	61	96	2
STR	61	144	2
SI_	61	144	2	96	96	7
TAP	61	240	6
STR	61	288	6
SCL	61	288	6	96	192	2
TAP	62	0	2
TAP	62	96	1
TAP	62	192	0
TAP	62	288	2
TAP	62	288	4
STR	63	0	0
SI_	63	0	0	96	96	4
TAP	63	96	5
STR	63	144	5
SI_	63	144	5	96	96	0
TAP	63	240	1
STR	63	288	1
SCR	63	288	1	96	192	5
TAP	64	0	5
TAP	64	96	6
TAP	64	192	7
STR	64	288	0
SI_	64	288	0	96	96	4
TAP	65	0	6
STR	65	96	7
SI_	65	96	7	96	96	3
TAP	65	192	1
STR	65	288	0
SCR	65	288	0	96	192	4
TAP	66	0	5
TAP	66	96	6
TAP	66	192	7
TAP	66	288	6
STR	67	0	2
SCR	67	0	2	96	96	5
TAP	67	96	6
STR	67	144	6
SUL	67	144	6	96	96	1
TAP	67	240	0
TAP	67	288	0
TAP	68	0	7
TAP	68	96	7
TAP	68	192	6
TAP	68	288	4
TAP	68	288	5
STR	69	0	0
SI_	69	0	0	96	96	3
TAP	69	96	7
STR	69	144	7
SI_	69	144	7	96	96	4
TAP	69	240	0
STR	69	288	0
SXL	69	288	0	96	192	0
TAP	70	0	5
TAP	70	96	6
TAP	70	192	7
TAP	70	288	6
TAP	71	0	4
TAP	71	0	5
TAP	71	96	1
TAP	71	192	2
TAP	71	192	3
STR	71	288	6
SCR	71	288	6	96	240	2
TAP	72	0	4
STR	72	192	3
SXR	72	192	3	96	288	7
TAP	72	288	4
TTP	74	0	6	E	0	M1
TTP	74	96	0	E	0	M1
TTP	74	192	2	E	0	M1
TTP	74	288	4	E	0	M1
TTP	75	0	5	B	0	M1
TTP	75	0	6	E	0	M1
TTP	75	0	6	B	0	M1
TTP	75	96	1	B	0	M1
TTP	75	96	2	B	0	M1
TTP	75	96	2	E	0	M1
TTP	75	192	0	C	1	M1
TAP	76	0	6
TAP	76	64	5
TAP	76	96	4
TAP	76	160	4
TAP	76	192	5
TAP	76	256	3
TAP	76	256	6
TAP	76	352	1
TAP	76	352	3
TAP	77	96	0
TAP	77	192	7
TAP	77	288	0
TAP	77	288	6
TAP	77	336	0
TAP	77	336	6
TAP	78	96	1
TAP	78	96	7
TAP	78	192	0
TAP	78	192	1
TAP	78	240	0
TAP	78	240	1
TAP	78	336	6
TAP	78	336	7
TAP	79	96	0
TAP	79	96	7
TAP	79	192	4
TAP	79	192	6
TAP	79	288	0
TAP	79	288	7
TAP	80	0	1
TAP	80	64	2
TAP	80	96	3
TAP	80	160	3
TAP	80	192	2
TAP	80	256	1
TAP	80	256	4
TAP	80	352	4
TAP	80	352	6
TAP	81	96	7
TAP	81	192	0
TAP	81	288	1
TAP	81	288	7
TAP	82	0	4
TAP	82	0	6
TAP	82	96	3
TAP	82	96	5
TAP	82	192	2
TAP	82	192	4
TAP	82	288	1
TAP	82	288	3
TAP	82	336	1
TAP	82	336	3
TAP	83	96	4
TAP	83	96	5
TAP	83	192	2
TAP	83	192	4
TAP	83	288	4
TAP	83	288	5
TAP	84	0	3
TAP	84	0	6
TAP	84	64	7
TAP	84	96	0
TAP	84	160	1
TAP	84	160	6
TAP	84	256	0
TAP	84	288	7
TAP	84	352	7
TAP	85	0	6
TAP	85	64	6
TAP	85	96	4
TAP	85	160	4
TAP	85	192	3
TAP	85	256	3
TAP	85	288	1
TAP	85	352	1
TAP	86	0	0
HLD	86	96	6	96
HLD	86	192	4	96
HLD	86	288	3	96
TAP	87	0	1
TAP	87	96	0
TAP	87	192	6
TAP	87	192	7
TAP	87	240	6
TAP	87	240	7
TAP	87	336	0
TAP	87	336	5
TAP	88	96	2
TAP	88	96	7
TAP	88	192	0
TAP	88	192	1
TAP	88	240	0
TAP	88	240	1
TAP	88	336	3
TAP	88	336	7
TAP	89	96	5
TAP	89	192	3
TAP	89	192	4
TAP	89	288	2
TAP	90	0	1
TAP	90	0	6
TAP	90	96	2
TAP	90	96	5
TAP	90	192	4
TAP	90	240	3
TAP	90	336	2
STR	90	336	5
SCR	90	336	5	96	144	1
STR	91	192	2
SCR	91	192	2	96	96	5
TAP	92	0	7
TAP	92	96	6
TAP	92	160	6
TAP	92	192	4
TAP	92	256	4
TAP	92	288	3
TAP	92	352	3
HLD	93	0	1	96
HLD	93	96	3	96
HLD	93	192	4	96
TAP	93	288	6
TAP	94	0	0
STR	94	0	6
SI_	94	0	6	96	96	3
TAP	94	96	3
STR	94	192	2
SI_	94	192	2	96	96	7
TAP	94	288	7
TAP	95	0	6
TAP	95	96	5
TAP	95	144	4
TAP	95	144	6
TAP	95	240	2
TAP	95	288	1
TAP	95	288	3
TAP	96	0	0
TAP	96	0	1
TAP	96	96	6
TAP	96	96	7
TAP	96	192	4
TAP	96	192	5
TAP	96	288	2
TAP	96	288	3
STR	97	0	0
SI_	97	0	0	96	96	4
TAP	97	96	5
STR	97	144	5
SI_	97	144	5	96	96	0
TAP	97	240	1
STR	97	288	1
SCR	97	288	1	96	192	5
TAP	98	0	5
TAP	98	96	6
TAP	98	192	7
TAP	98	288	4
TAP	98	288	6
STR	99	0	7
SI_	99	0	7	96	96	3
TAP	99	96	2
STR	99	144	2
SI_	99	144	2	96	96	7
TAP	99	240	6
STR	99	288	6
SCL	99	288	6	96	192	2
TAP	100	0	2
TAP	100	96	1
TAP	100	192	0
STR	100	288	7
SI_	100	288	7	96	96	3
TAP	101	0	1
STR	101	96	0
SI_	101	96	0	96	96	4
TAP	101	192	6
STR	101	288	7
SCL	101	288	7	96	192	3
TAP	102	0	1
TAP	102	96	1
TAP	102	192	0
TAP	102	288	1
STR	103	0	2
SCR	103	0	2	96	96	5
TAP	103	96	6
STR	103	144	6
SUL	103	144	6	96	96	1
TAP	103	240	0
TAP	103	288	0
TAP	104	0	7
TAP	104	96	7
TAP	104	192	6
TAP	104	288	4
TAP	104	288	5
STR	105	0	7
SI_	105	0	7	96	96	4
TAP	105	96	0
STR	105	144	0
SI_	105	144	0	96	96	3
TAP	105	240	7
STR	105	288	7
SXR	105	288	7	96	192	7
TAP	106	0	2
TAP	106	96	1
TAP	106	192	0
TAP	106	288	6
TAP	107	0	3
TAP	107	0	4
TAP	107	96	0
XTP	107	192	2
XTP	107	192	6
XTP	107	288	2
XTP	107	288	6
TAP	108	0	1
STR	108	0	7
SI_	108	0	7	96	96	4
TAP	108	96	4
STR	108	192	3
SI_	108	192	3	96	96	0
TAP	108	288	0
TAP	109	0	7
TAP	109	96	6
TAP	109	144	5
TAP	109	144	7
TAP	109	240	1
TAP	109	288	0
TAP	109	288	2
TAP	110	0	0
TAP	110	0	7
TAP	110	96	4
TAP	110	96	6
TAP	110	192	3
TAP	110	192	4
TAP	110	288	1
TAP	110	288	3
HLD	111	0	1	96
HLD	111	0	2	96
HLD	111	144	0	96
HLD	111	144	4	96
STR	111	288	5
SUR	111	288	5	96	192	2
STR	111	288	6
SCR	111	288	6	96	192	1
TAP	112	288	3
TAP	112	288	5
HLD	113	0	5	96
HLD	113	0	6	96
HLD	113	144	3	96
HLD	113	144	7	96
STR	113	288	1
SCL	113	288	1	96	192	6
STR	113	288	2
SUL	113	288	2	96	192	5
STR	114	288	7
SI_	114	288	7	96	96	3
TAP	115	0	1
STR	115	96	0
SI_	115	96	0	96	96	4
TAP	115	192	6
STR	115	288	7
SCL	115	288	7	96	192	3
TAP	116	0	2
TAP	116	96	2
TAP	116	192	1
TAP	116	288	1
HLD	117	0	0	96
HLD	117	0	3	96
HLD	117	144	4	96
HLD	117	144	7	96
STR	117	288	5
SCR	117	288	5	96	96	0
TAP	118	0	2
TAP	118	96	1
TAP	118	192	0
TAP	118	192	7
TAP	118	288	5
TAP	118	288	6
HLD	119	0	4	96
HLD	119	0	7	96
HLD	119	144	0	96
HLD	119	144	3	96
STR	119	288	2
SCL	119	288	2	96	96	7
TAP	120	0	5
TAP	120	96	5
TAP	120	192	6
TAP	120	288	7
TAP	121	0	4
TAP	121	0	5
TAP	121	96	0
TAP	121	192	2
TAP	121	192	3
STR	121	288	7
SCL	121	288	7	96	192	1
TAP	122	0	4
STR	122	192	0
SI_	122	192	0	96	192	4
TAP	122	288	7
TAP	123	192	1
TAP	123	192	6
BRK	123	288	0
BRK	123	288	7
TAP	124	0	2
TAP	124	0	3
TAP	124	96	1
TAP	124	96	4
TAP	124	192	2
TAP	124	240	3
TTP	124	336	1	E	0	M1
TTP	124	336	3	B	0	M1
TTP	125	48	3	B	0	M1
TTP	125	48	6	E	0	M1
TTP	125	144	1	E	0	M1
TTP	125	144	3	B	0	M1
TAP	125	240	7
TAP	125	288	7
TAP	126	0	4
TAP	126	0	5
TAP	126	96	3
TAP	126	96	6
TAP	126	192	5
TAP	126	240	4
TTP	126	336	4	B	0	M1
TTP	126	336	7	E	0	M1
TTP	127	48	2	E	0	M1
TTP	127	48	4	B	0	M1
TTP	127	144	4	B	0	M1
TTP	127	144	7	E	0	M1
TAP	127	240	0
TAP	127	288	0
TAP	128	0	2
TAP	128	0	7
TAP	128	96	3
TAP	128	96	6
TAP	128	192	5
TAP	128	240	4
TAP	128	336	3
HLD	128	336	6	144
HLD	129	96	4	96
HLD	129	192	3	96
TAP	129	288	1
TAP	130	0	2
TAP	130	96	3
TAP	130	192	5
TAP	130	240	4
XTP	130	336	3
XTP	130	336	7
TTP	131	96	0	E	0	M1
TTP	131	192	2	E	0	M1
TTP	131	288	4	E	0	M1
TAP	132	0	4
TAP	132	0	5
TAP	132	96	3
TAP	132	96	6
TAP	132	192	5
TAP	132	240	4
TTP	132	336	4	B	0	M1
TTP	132	336	7	E	0	M1
TTP	133	48	2	E	0	M1
TTP	133	48	4	B	0	M1
TTP	133	144	4	B	0	M1
TTP	133	144	7	E	0	M1
TAP	133	240	0
TAP	133	288	0
TAP	134	0	2
TAP	134	0	3
TAP	134	96	1
TAP	134	96	4
TAP	134	192	2
TAP	134	240	3
TTP	134	336	1	E	0	M1
TTP	134	336	3	B	0	M1
TTP	135	48	3	B	0	M1
TTP	135	48	6	E	0	M1
TTP	135	144	1	E	0	M1
TTP	135	144	3	B	0	M1
TAP	135	240	7
TAP	135	288	7
TAP	136	0	0
TAP	136	0	5
TAP	136	96	1
TAP	136	96	4
TAP	136	192	2
TAP	136	240	3
HLD	136	336	1	144
TAP	136	336	4
HLD	137	96	2	96
HLD	137	192	3	96
TAP	137	288	4
TAP	138	0	5
TAP	138	48	5
TAP	138	96	4
TTP	138	192	3	E	0	M1
TTP	138	192	7	E	0	M1
TAP	138	288	2
TAP	138	336	2
TAP	139	0	3
TTP	139	96	1	E	0	M1
TTP	139	96	5	E	0	M1
TAP	139	192	4
TAP	139	240	4
TAP	139	288	3
TTP	140	0	2	B	0	M1
TTP	140	0	5	B	0	M1
TAP	140	96	0
TAP	140	144	0
TAP	140	192	7
TTP	140	288	2	E	0	M1
TTP	140	288	6	E	0	M1
TAP	141	0	3
TAP	141	0	6
TAP	141	96	1
TAP	141	96	4
TAP	141	192	4
TAP	141	240	3
TAP	141	336	2
TAP	141	336	5
TTP	142	96	5	E	0	M1
TTP	142	108	4	B	0	M1
TTP	142	120	3	B	0	M1
TTP	142	132	3	E	0	M1

T_REC_TAP	488
T_REC_BRK	4
T_REC_XTP	6
T_REC_HLD	56
T_REC_XHO	0
T_REC_STR	63
T_REC_BST	0
T_REC_XST	6
T_REC_TTP	95
T_REC_THO	3
T_REC_SLD	69
T_REC_ALL	790
T_NUM_TAP	658
T_NUM_BRK	4
T_NUM_HLD	59
T_NUM_SLD	69
T_NUM_ALL	790
T_JUDGE_TAP	662
T_JUDGE_HLD	84
T_JUDGE_SLD	69
T_JUDGE_ALL	815
TTM_EACHPAIRS	144
TTM_SCR_TAP	329000
TTM_SCR_BRK	10400
TTM_SCR_HLD	59000
TTM_SCR_SLD	103500
TTM_SCR_ALL	501900
TTM_SCR_S	486500
TTM_SCR_SS	501500
TTM_RAT_ACV	10007

