VERSION	0.00.00	1.03.00
FES_MODE	0
BPM_DEF	240.000	240.000	240.000	240.000
MET_DEF	4	4
RESOLUTION	384
CLK_DEF	384
COMPATIBLE_CODE	MA2

BPM	0	0	240.000
MET	0	0	4	4

XTP	2	0	0
XTP	2	0	1
XTP	2	288	6
XTP	2	288	7
TTP	3	192	0	C	1	M1
TTP	3	192	1	B	0	M1
TTP	3	192	2	B	0	M1
TTP	3	192	5	B	0	M1
TTP	3	192	6	B	0	M1
XHO	4	96	0	240
XHO	4	96	7	240
TAP	5	96	0
TAP	5	192	7
XTP	5	288	1
XTP	5	288	6
TAP	6	0	5
TAP	6	96	4
TAP	6	96	6
TAP	6	192	3
HLD	6	192	5	336
XTP	6	336	4
XTP	7	48	3
XTP	7	144	4
TAP	7	288	2
TAP	7	288	3
TAP	8	0	2
TAP	8	96	1
TAP	8	96	3
HLD	8	192	2	336
TAP	8	192	4
XTP	8	336	3
XTP	9	48	4
XTP	9	144	3
TAP	9	288	4
TAP	9	288	5
TAP	10	0	7
TAP	10	96	0
TAP	10	96	6
HLD	10	192	1	144
HLD	10	192	5	144
XTP	11	96	0
XTP	11	96	1
XTP	11	192	2
XTP	11	192	7
XTP	11	288	3
XTP	11	288	6
TAP	12	0	4
TAP	12	0	5
TAP	12	96	2
TAP	12	96	3
HLD	12	192	7	144
TAP	12	336	0
XTP	13	96	0
XTP	13	96	7
XTP	13	192	1
XTP	13	192	6
BRK	13	288	2
BRK	13	288	5
TAP	14	0	3
TAP	14	96	2
TAP	14	96	4
HLD	14	192	1	336
TAP	14	192	5
XTP	14	336	4
XTP	15	48	3
XTP	15	144	4
TAP	15	288	2
TAP	15	288	3
TAP	16	0	4
TAP	16	96	3
TAP	16	96	5
TAP	16	192	2
HLD	16	192	6	336
XTP	16	336	4
XTP	17	48	3
XTP	17	144	4
TAP	17	288	0
TAP	17	288	6
TAP	18	0	1
TAP	18	96	0
TAP	18	96	2
HLD	18	192	3	144
HLD	18	192	7	144
TAP	19	96	6
TAP	19	96	7
TAP	19	192	0
TAP	19	192	5
TAP	19	288	1
TAP	19	288	4
TAP	20	0	2
TAP	20	96	3
HLD	20	192	2	96
HLD	20	192	4	96
TAP	21	0	5
TAP	21	96	4
HLD	21	192	3	96
HLD	21	192	5	96
TAP	22	0	7
TAP	22	96	0
HLD	22	192	1	144
HLD	22	192	6	144
TAP	23	96	3
TAP	23	96	4
XTP	23	192	3
XTP	23	192	4
TAP	24	0	0
STR	24	0	1
SI_	24	0	1	96	120	4
TAP	24	288	6
STR	25	0	6
SI_	25	0	6	96	120	3
TAP	25	0	7
TAP	25	288	2
HLD	26	0	2	192
TAP	26	0	3
HLD	26	192	0	192
HLD	27	0	7	192
TAP	27	192	5
STR	28	0	3
SCL	28	0	3	96	120	0
HLD	28	0	5	192
TAP	28	288	4
HLD	29	0	2	192
STR	29	0	4
SCR	29	0	4	96	120	7
TAP	29	288	1
HLD	30	0	1	192
TAP	30	0	7
HLD	30	192	3	192
HLD	31	0	4	192
TAP	31	192	6
HLD	32	0	3	192
STR	32	0	5
SI_	32	0	5	96	120	0
TAP	32	288	2
STR	33	0	2
SI_	33	0	2	96	120	7
HLD	33	0	4	192
TAP	33	288	6
HLD	34	0	6	192
TAP	34	0	7
HLD	34	192	4	192
HLD	35	0	3	192
TAP	35	192	1
STR	36	0	0
SCL	36	0	0	96	120	5
STR	36	0	1
SI_	36	0	1	96	120	5
TTP	37	0	3	B	0	M1
TTP	37	0	3	E	0	M1
TTP	37	192	5	E	0	M1
TTP	37	192	5	B	0	M1
TTP	38	0	1	B	0	M1
TTP	38	0	1	E	0	M1
TTP	38	192	7	E	0	M1
TTP	38	192	7	B	0	M1
TTP	39	0	2	E	0	M1
TTP	39	0	2	B	0	M1
TTP	39	192	5	B	0	M1
TTP	39	192	6	E	0	M1
STR	40	0	0
SCR	40	0	0	96	480	7
TAP	40	0	7
XTP	42	0	2
XTP	42	0	7
TAP	42	96	3
TAP	42	96	6
TAP	42	192	4
TAP	42	192	5
TAP	42	288	5
TAP	42	336	4
TAP	43	96	2
TAP	43	96	3
TAP	43	192	1
TAP	43	192	4
TAP	43	288	0
TAP	43	288	5
STR	44	0	6
SCL	44	0	6	96	480	7
TAP	44	0	7
XTP	46	0	0
XTP	46	0	5
TAP	46	96	1
TAP	46	96	4
TAP	46	192	2
TAP	46	192	3
TAP	46	288	2
TAP	46	336	3
TAP	47	96	4
TAP	47	96	5
TAP	47	192	3
TAP	47	192	6
TAP	47	288	2
TAP	47	288	7
TAP	48	0	0
STR	48	0	1
SCR	48	0	1	96	480	0
XTP	50	0	2
XTP	50	0	7
TAP	50	96	3
TAP	50	96	6
TAP	50	192	4
TAP	50	192	5
TAP	50	288	5
TAP	50	336	4
TAP	51	96	3
TAP	51	96	4
TAP	51	192	2
TAP	51	192	5
TAP	51	288	1
TAP	51	288	6
STR	52	0	0
SI_	52	0	0	96	120	4
STR	52	0	7
SI_	52	0	7	96	120	5
STR	53	0	0
SI_	53	0	0	96	120	2
STR	53	0	7
SI_	53	0	7	96	120	3
STR	54	0	0
SSL	54	0	0	96	480	4
HLD	54	0	7	576
TAP	56	0	3
TAP	56	0	5
TAP	56	96	4
TAP	56	192	3
TAP	56	288	2
HLD	56	336	2	144
XTP	57	96	4
XTP	57	192	3
XTP	57	288	4
TAP	58	0	2
TAP	58	0	6
TAP	58	96	5
TAP	58	192	3
TAP	58	288	4
HLD	59	0	2	96
TAP	59	96	5
HLD	59	144	5	96
TAP	59	240	4
TAP	59	288	4
TAP	60	0	3
TAP	60	0	6
TAP	60	96	2
TAP	60	192	4
TAP	60	288	3
HLD	61	0	6	96
TAP	61	96	2
HLD	61	144	2	96
TAP	61	240	3
TAP	61	288	3
TAP	62	0	1
TAP	62	0	4
TAP	62	96	5
TAP	62	192	2
TAP	62	288	3
HLD	63	0	0	96
TAP	63	96	5
HLD	63	144	5	96
TAP	63	240	4
STR	63	288	4
SCL	63	288	4	96	192	0
TAP	64	0	6
TAP	64	288	7
HLD	65	0	0	96
HLD	65	0	6	96
HLD	65	192	1	96
HLD	65	192	5	96
HLD	66	0	2	192
HLD	66	0	4	192
TAP	66	288	3
XTP	67	0	2
XTP	67	0	4
XTP	67	96	3
XTP	67	144	4
XTP	67	240	4
XTP	67	288	5
XHO	68	0	3	192
XHO	68	0	6	192
TAP	68	288	4
XTP	69	0	3
XTP	69	0	5
XTP	69	96	4
XTP	69	144	3
XTP	69	240	3
XTP	69	288	2
XHO	70	0	1	192
XHO	70	0	4	192
TAP	70	288	5
TAP	71	0	1
TAP	71	96	6
TAP	71	192	2
TAP	71	288	7
XHO	72	0	3	1152
XST	72	288	7
SCR	72	288	7	96	768	6
XTP	75	192	0
XTP	75	192	7
TAP	76	0	3
TAP	76	96	2
TAP	76	96	4
TAP	76	192	4
TAP	76	288	3
TAP	76	288	5
TAP	77	0	2
TAP	77	96	1
TAP	77	96	4
TAP	77	192	0
TAP	77	192	5
HLD	78	0	2	96
TAP	78	0	3
TAP	78	96	4
TAP	78	192	4
HLD	78	192	5	96
TAP	78	288	3
TAP	79	0	2
TAP	79	0	3
TAP	79	96	3
TAP	79	96	4
BRK	79	192	4
BRK	79	192	5
TAP	80	0	4
TAP	80	96	3
TAP	80	96	5
TAP	80	192	3
TAP	80	288	2
TAP	80	288	4
TAP	81	0	5
TAP	81	96	3
TAP	81	96	6
TAP	81	192	2
TAP	81	192	7
TAP	82	0	4
HLD	82	0	5	96
TAP	82	96	3
HLD	82	192	2	96
TAP	82	192	3
TAP	82	288	4
TAP	83	0	4
TAP	83	0	5
TAP	83	96	3
TAP	83	96	4
BRK	83	192	2
BRK	83	192	3
TTP	84	0	2	B	0	M1
TTP	84	96	4	B	0	M1
TTP	84	192	1	B	0	M1
TTP	84	288	5	B	0	M1
TTP	85	0	0	B	0	M1
TTP	85	96	6	B	0	M1
TTP	85	192	0	E	0	M1
TTP	85	192	7	B	0	M1
TTP	86	0	5	B	0	M1
TTP	86	96	3	B	0	M1
TTP	86	192	6	B	0	M1
TTP	86	288	2	B	0	M1
TTP	87	0	7	B	0	M1
TTP	87	96	1	B	0	M1
TTP	87	192	0	B	0	M1
TTP	87	192	0	E	0	M1
TTP	88	0	2	B	0	M1
TTP	88	0	3	E	0	M1
TTP	88	0	3	B	0	M1
TTP	88	96	0	C	0	M1
TTP	88	192	0	B	0	M1
TTP	88	192	6	B	0	M1
TTP	88	192	7	B	0	M1
TTP	89	0	4	B	0	M1
TTP	89	0	5	B	0	M1
TTP	89	0	5	E	0	M1
TTP	89	96	0	C	0	M1
TTP	89	192	0	B	0	M1
TTP	89	192	1	B	0	M1
TTP	89	192	7	B	0	M1
THO	90	0	0	576	C	0	M1
TTP	90	0	2	B	0	M1
TTP	90	0	5	B	0	M1
STR	92	0	0
SCR	92	0	0	96	120	3
STR	92	0	7
SCL	92	0	7	96	120	4
TTP	93	0	0	C	1	M1
TTP	93	0	1	B	0	M1
TTP	93	0	2	E	0	M1
TTP	93	0	2	B	0	M1
TTP	93	0	5	B	0	M1
TTP	93	0	6	B	0	M1
TTP	93	0	6	E	0	M1
TAP	94	0	3
TAP	94	0	5
TAP	94	96	4
TAP	94	192	2
TAP	94	192	4
TAP	94	288	1
HLD	95	0	1	96
TAP	95	96	0
TAP	95	144	0
TAP	95	240	2
TAP	95	240	7
STR	95	288	2
SUR	95	288	2	96	192	0
STR	95	288	7
SCL	95	288	7	96	192	3
HLD	97	0	6	96
TAP	97	96	7
TAP	97	144	7
TAP	97	240	0
TAP	97	240	5
STR	97	288	0
SCR	97	288	0	96	192	4
STR	97	288	5
SUL	97	288	5	96	192	7
HLD	98	288	1	96
TAP	99	0	0
TAP	99	96	2
TAP	99	96	7
TAP	99	144	2
TAP	99	144	7
TAP	99	240	0
STR	99	288	0
SXL	99	288	0	96	192	2
SXR	99	288	0	96	192	6
TAP	100	288	1
TAP	100	288	7
TAP	101	0	1
TAP	101	0	3
TAP	101	96	4
TAP	101	192	4
TAP	101	192	6
TAP	101	288	3
STR	102	0	2
SI_	102	0	2	96	120	6
STR	102	0	3
SI_	102	0	3	96	120	7
TAP	102	288	0
XTP	103	0	1
XTP	103	0	7
TAP	103	96	3
TAP	103	96	6
XTP	103	144	3
XTP	103	144	6
TAP	103	240	2
TAP	103	240	4
XTP	103	288	2
XTP	103	288	4
XTP	104	0	1
XST	104	0	5
SCL	104	0	5	96	120	2
TAP	104	288	1
XTP	105	0	3
XTP	105	0	7
TAP	105	96	1
TAP	105	96	4
XTP	105	144	1
XTP	105	144	4
TAP	105	240	2
TAP	105	240	6
XTP	105	288	2
XTP	105	288	6
XST	106	0	0
SI_	106	0	0	96	120	3
XTP	106	0	4
XTP	106	288	4
XTP	107	0	3
XTP	107	0	5
XTP	107	96	2
XTP	107	96	6
BRK	107	192	1
BRK	107	192	7
TAP	108	0	0
TAP	108	0	5
TAP	108	96	1
TAP	108	192	2
TAP	108	192	7
TAP	108	288	6
XHO	109	0	3	96
XTP	109	0	4
TAP	109	96	2
XTP	109	144	2
TAP	109	240	1
TAP	109	240	2
XST	109	288	1
SCL	109	288	1	96	192	6
XST	109	288	2
SUL	109	288	2	96	192	5
XTP	111	0	3
XHO	111	0	4	96
TAP	111	96	5
XTP	111	144	5
TAP	111	240	5
TAP	111	240	6
XST	111	288	5
SUR	111	288	5	96	192	2
XST	111	288	6
SCR	111	288	6	96	192	1
XTP	112	288	3
XTP	112	288	4
XTP	113	0	2
XHO	113	0	5	96
TAP	113	96	4
XHO	113	144	4	96
TAP	113	240	3
XST	113	288	3
SUR	113	288	3	96	240	4
TAP	114	0	2
TAP	114	288	0
TAP	115	0	1
TAP	115	0	5
TAP	115	96	3
TAP	115	192	2
TAP	115	192	6
TAP	115	288	4
STR	116	0	1
SI_	116	0	1	96	120	4
STR	116	0	5
SI_	116	0	5	96	120	0
TAP	116	288	2
TAP	116	288	6
XHO	117	0	1	96
XHO	117	0	4	96
XHO	117	144	3	96
XHO	117	144	6	96
XTP	117	288	0
XTP	117	288	5
XST	118	0	2
SI_	118	0	2	96	120	0
XST	118	0	7
SI_	118	0	7	96	120	3
TAP	118	288	1
TAP	118	288	5
XHO	119	0	3	96
XHO	119	0	6	96
XHO	119	144	1	96
XHO	119	144	4	96
XTP	119	288	2
XTP	119	288	7
XST	120	0	0
SI_	120	0	0	96	120	4
XST	120	0	5
SI_	120	0	5	96	120	7
TAP	120	288	2
TAP	120	288	6
TAP	121	0	7
TAP	121	96	0
TAP	121	96	6
TAP	121	192	1
TAP	121	192	5
TAP	121	288	2
TAP	121	288	4
XHO	122	0	3	288
XST	122	288	7
SF_	122	288	7	96	192	3
TAP	124	0	5
TAP	124	96	3
TAP	124	192	4
TAP	124	240	3
TAP	124	336	2
TAP	124	336	3
TAP	125	48	3
TAP	125	48	4
HLD	125	144	4	96
HLD	125	144	5	96
XTP	125	288	3
XTP	125	288	6
TAP	126	0	2
TAP	126	96	4
TAP	126	192	3
TAP	126	240	4
TAP	126	336	4
TAP	126	336	5
TAP	127	48	3
TAP	127	48	4
HLD	127	144	2	96
HLD	127	144	3	96
XTP	127	288	1
XTP	127	288	4
TAP	128	0	5
TAP	128	96	3
TAP	128	192	4
TAP	128	240	3
HLD	128	336	2	144
HLD	128	336	4	144
TAP	129	192	3
XTP	129	288	2
XTP	129	288	4
TAP	130	0	2
TAP	130	0	3
TAP	130	96	3
TAP	130	96	4
TAP	130	192	5
TAP	130	240	4
TAP	130	336	3
TAP	130	336	6
XTP	131	96	0
XTP	131	96	7
XTP	131	192	1
XTP	131	192	6
BRK	131	288	2
BRK	131	288	5
HLD	132	0	3	96
TAP	132	96	4
TAP	132	192	3
TAP	132	240	4
TTP	132	336	1	B	0	M1
TTP	132	336	2	E	0	M1
TTP	132	336	2	B	0	M1
TTP	133	48	5	B	0	M1
TTP	133	48	6	B	0	M1
TTP	133	48	6	E	0	M1
TTP	133	144	0	C	0	M1
XTP	133	288	3
XTP	133	288	4
HLD	134	0	5	96
TAP	134	96	3
TAP	134	192	4
TAP	134	240	3
TTP	134	336	5	B	0	M1
TTP	134	336	6	B	0	M1
TTP	134	336	6	E	0	M1
TTP	135	48	1	B	0	M1
TTP	135	48	2	E	0	M1
TTP	135	48	2	B	0	M1
TTP	135	144	0	C	0	M1
XTP	135	288	3
XTP	135	288	4
HLD	136	0	2	96
TAP	136	96	4
TAP	136	192	3
TAP	136	240	4
XTP	136	336	1
XTP	136	336	6
TTP	137	96	6	B	0	M1
TTP	137	96	7	B	0	M1
TTP	137	96	7	E	0	M1
TTP	137	192	2	B	0	M1
TTP	137	192	3	B	0	M1
TTP	137	192	3	E	0	M1
TTP	137	288	0	C	0	M1
XST	138	0	1
SI_	138	0	1	96	120	4
XTP	138	48	1
XST	138	288	7
SI_	138	288	7	96	120	3
XTP	138	336	7
XST	139	192	0
SI_	139	192	0	96	120	4
XTP	139	240	0
XST	140	96	6
SI_	140	96	6	96	120	3
XTP	140	144	6
XTP	141	0	2
XTP	141	96	2
XTP	141	192	4
XTP	141	240	3
XTP	141	336	3
XTP	141	336	4
TTP	142	96	0	C	1	M1
TTP	142	96	1	B	0	M1
TTP	142	96	2	B	0	M1
TTP	142	96	5	B	0	M1
TTP	142	96	6	B	0	M1

T_REC_TAP	290
T_REC_BRK	10
T_REC_XTP	109
T_REC_HLD	58
T_REC_XHO	20
T_REC_STR	28
T_REC_BST	0
T_REC_XST	17
T_REC_TTP	82
T_REC_THO	1
T_REC_SLD	46
T_REC_ALL	661
T_NUM_TAP	526
T_NUM_BRK	10
T_NUM_HLD	79
T_NUM_SLD	46
T_NUM_ALL	661
T_JUDGE_TAP	536
T_JUDGE_HLD	147
T_JUDGE_SLD	46
T_JUDGE_ALL	729
TTM_EACHPAIRS	175
TTM_SCR_TAP	263000
TTM_SCR_BRK	26000
TTM_SCR_HLD	79000
TTM_SCR_SLD	69000
TTM_SCR_ALL	437000
TTM_SCR_S	422950
TTM_SCR_SS	436000
TTM_RAT_ACV	10022

