VERSION	0.00.00	1.03.00
FES_MODE	0
BPM_DEF	240.000	240.000	240.000	240.000
MET_DEF	4	4
RESOLUTION	384
CLK_DEF	384
COMPATIBLE_CODE	MA2

BPM	0	0	240.000
MET	0	0	4	4

TAP	6	0	1
TAP	6	96	1
TAP	6	192	1
XTP	7	0	0
XTP	7	192	0
TAP	8	0	6
TAP	8	96	6
TAP	8	192	6
XTP	9	0	7
XTP	9	192	7
TAP	10	0	1
TAP	10	96	1
TAP	10	192	1
TAP	11	0	2
TAP	11	96	2
TAP	11	192	2
TAP	12	0	3
TAP	12	96	3
TAP	12	192	3
XTP	13	0	2
XTP	13	0	5
TAP	14	0	6
TAP	14	96	6
TAP	14	192	6
XTP	15	0	7
XTP	15	192	7
TAP	16	0	1
TAP	16	96	1
TAP	16	192	1
XTP	17	0	0
XTP	17	192	0
TAP	18	0	6
TAP	18	96	6
TAP	18	192	6
TAP	19	0	7
TAP	19	96	7
TAP	19	192	7
TAP	20	0	0
TAP	20	96	0
TAP	20	192	0
XTP	21	0	7
XTP	21	192	7
TAP	22	0	0
XTP	22	192	0
XTP	22	192	7
XTP	23	0	1
XTP	23	0	6
HLD	24	0	5	384
TAP	25	0	4
TAP	25	192	4
HLD	26	0	3	384
TAP	27	0	4
TAP	27	192	4
HLD	28	0	5	384
TAP	29	0	4
TAP	29	192	3
TAP	30	0	2
TAP	30	192	2
TAP	31	0	2
TAP	31	0	3
HLD	32	0	2	384
TAP	33	0	3
TAP	33	192	3
HLD	34	0	4	384
TAP	35	0	3
TAP	35	192	3
TAP	36	0	2
TAP	36	192	2
TAP	37	0	1
TAP	37	192	1
TAP	38	0	0
TAP	38	192	0
BRK	39	0	1
BRK	39	0	6
STR	40	0	0
SCR	40	0	0	96	528	5
XTP	42	0	6
XTP	42	192	6
TAP	43	0	7
TAP	43	192	7
STR	44	0	7
SCL	44	0	7	96	528	2
XTP	46	0	1
XTP	46	192	1
TAP	47	0	0
TAP	47	192	0
STR	48	0	0
SCR	48	0	0	96	528	5
XTP	50	0	6
XTP	50	192	6
TAP	51	0	7
TAP	51	192	7
STR	52	0	7
SCL	52	0	7	96	336	4
XTP	53	192	3
STR	54	0	3
SCL	54	0	3	96	336	0
XTP	55	192	7
XTP	56	0	7
XTP	56	192	0
XTP	56	192	7
XTP	57	0	1
XTP	57	0	6
TAP	58	0	0
TAP	58	96	0
TAP	58	192	1
TAP	58	288	1
TAP	59	0	1
XTP	59	192	2
XTP	59	192	3
TAP	60	0	4
TAP	60	96	4
TAP	60	192	5
TAP	60	288	5
TAP	61	0	5
XTP	61	192	6
XTP	61	192	7
TAP	62	0	5
TAP	62	96	5
TAP	62	192	4
TAP	62	192	5
TAP	63	0	2
TAP	63	96	2
TAP	63	192	2
TAP	63	192	3
TAP	64	0	4
TAP	64	96	4
TAP	64	192	3
TAP	64	192	4
XTP	65	0	2
XTP	65	0	5
TAP	66	0	7
TAP	66	96	7
TAP	66	192	6
TAP	66	288	6
TAP	67	0	6
XTP	67	192	4
XTP	67	192	5
TAP	68	0	3
TAP	68	96	3
TAP	68	192	2
TAP	68	288	2
TAP	69	0	2
XTP	69	192	0
XTP	69	192	1
TAP	70	0	2
TAP	70	96	2
TAP	70	192	2
TAP	70	192	3
TAP	71	0	5
TAP	71	96	5
TAP	71	192	4
TAP	71	192	5
TAP	72	0	6
TAP	72	96	6
XST	72	192	6
SCR	72	192	6	96	720	3
TTP	76	0	3	B	0	L1
TTP	77	0	5	B	0	L1
TTP	78	0	6	B	0	L1
TTP	80	0	4	B	0	L1
TTP	81	0	2	B	0	L1
TTP	82	0	1	B	0	L1
TTP	84	0	3	B	0	L1
TTP	85	0	5	B	0	L1
TTP	86	0	6	B	0	L1
TTP	87	0	0	C	0	L1
TTP	88	0	2	B	0	L1
TTP	89	0	1	B	0	L1
THO	90	0	0	768	C	1	L1
TAP	94	0	7
TAP	94	96	7
TAP	94	192	6
TAP	94	288	6
TAP	95	0	5
TAP	95	96	5
XTP	95	192	3
XTP	95	192	4
TAP	96	0	2
TAP	96	96	2
TAP	96	192	1
TAP	96	288	1
TAP	97	0	0
TAP	97	96	0
XTP	97	192	0
XTP	97	192	7
TAP	98	0	6
TAP	98	96	6
TAP	98	192	6
TAP	98	192	7
TAP	99	0	1
TAP	99	96	1
TAP	99	192	0
TAP	99	192	1
TAP	100	0	7
TAP	100	96	7
TAP	100	192	0
TAP	100	192	7
XTP	101	0	1
XTP	101	0	6
TAP	102	0	0
TAP	102	96	0
TAP	102	192	1
TAP	102	288	1
TAP	103	0	2
TAP	103	96	2
XTP	103	192	3
XTP	103	192	4
TAP	104	0	5
TAP	104	96	5
TAP	104	192	6
TAP	104	288	6
TAP	105	0	7
TAP	105	96	7
XTP	105	192	0
XTP	105	192	7
TAP	106	0	1
TAP	106	96	1
TAP	106	192	0
TAP	106	192	1
BRK	107	0	2
BRK	107	0	7
TAP	108	0	0
TAP	108	96	0
TAP	108	192	1
TAP	108	288	1
TAP	109	0	2
TAP	109	96	2
XTP	109	192	1
XTP	109	192	3
TAP	110	0	4
TAP	110	96	4
TAP	110	192	5
TAP	110	288	5
TAP	111	0	6
TAP	111	96	6
XTP	111	192	0
XTP	111	192	7
TAP	112	0	1
TAP	112	96	1
TAP	112	192	0
TAP	112	192	1
TAP	113	0	6
TAP	113	96	6
TAP	113	192	6
TAP	113	192	7
TAP	114	0	0
TAP	114	96	0
TAP	114	192	0
TAP	114	192	7
XTP	115	0	1
XTP	115	0	6
TAP	116	0	7
TAP	116	96	7
TAP	116	192	6
TAP	116	288	6
TAP	117	0	5
TAP	117	96	5
XTP	117	192	4
XTP	117	192	6
TAP	118	0	3
TAP	118	96	3
TAP	118	192	2
TAP	118	288	2
TAP	119	0	1
TAP	119	96	1
XTP	119	192	0
XTP	119	192	7
TAP	120	0	6
TAP	120	96	6
TAP	120	192	6
TAP	120	192	7
TAP	121	0	1
TAP	121	96	1
TAP	121	192	0
TAP	121	192	1
TAP	122	0	7
TAP	122	192	0
TAP	122	192	7
XTP	123	0	1
XTP	123	0	6
HLD	124	0	2	192
TAP	124	192	3
TAP	125	0	5
TAP	125	96	5
XTP	125	192	4
XTP	125	192	5
HLD	126	0	6	192
TAP	126	192	7
TAP	127	0	0
TAP	127	96	0
XTP	127	192	0
XTP	127	192	7
TAP	128	0	6
TAP	128	96	6
TAP	128	192	6
TAP	128	192	7
TAP	129	0	1
TAP	129	96	1
TAP	129	192	0
TAP	129	192	1
TAP	130	0	7
TAP	130	192	0
TAP	130	192	7
XTP	131	0	1
XTP	131	0	6
HLD	132	0	5	192
TAP	132	192	4
TAP	133	0	2
TAP	133	96	2
XTP	133	192	2
XTP	133	192	3
HLD	134	0	1	192
TAP	134	192	0
TAP	135	0	7
TAP	135	96	7
XTP	135	192	0
XTP	135	192	7
TAP	136	0	1
TAP	136	0	6
TAP	136	192	2
TAP	136	192	5
XTP	137	0	3
XTP	137	0	4
TTP	138	0	3	B	0	L1
TTP	138	0	4	B	0	L1
TTP	139	0	2	B	0	L1
TTP	139	0	5	B	0	L1
TTP	140	0	1	B	0	L1
TTP	140	0	6	B	0	L1
THO	141	0	0	480	C	1	L1

T_REC_TAP	213
T_REC_BRK	4
T_REC_XTP	73
T_REC_HLD	9
T_REC_XHO	0
T_REC_STR	5
T_REC_BST	0
T_REC_XST	1
T_REC_TTP	18
T_REC_THO	2
T_REC_SLD	6
T_REC_ALL	331
T_NUM_TAP	310
T_NUM_BRK	4
T_NUM_HLD	11
T_NUM_SLD	6
T_NUM_ALL	331
T_JUDGE_TAP	314
T_JUDGE_HLD	41
T_JUDGE_SLD	6
T_JUDGE_ALL	361
TTM_EACHPAIRS	50
TTM_SCR_TAP	155000
TTM_SCR_BRK	10400
TTM_SCR_HLD	11000
TTM_SCR_SLD	9000
TTM_SCR_ALL	185400
TTM_SCR_S	179450
TTM_SCR_SS	185000
TTM_RAT_ACV	10021

