VERSION	0.00.00	1.03.00
FES_MODE	0
BPM_DEF	240.000	240.000	240.000	240.000
MET_DEF	4	4
RESOLUTION	384
CLK_DEF	384
COMPATIBLE_CODE	MA2

BPM	0	0	240.000
MET	0	0	4	4

TAP	6	0	0
TAP	8	0	0
TAP	10	0	7
HLD	12	0	7	384
TAP	14	0	7
TAP	16	0	7
TAP	18	0	0
XHO	20	0	0	768
TAP	24	0	1
TAP	25	0	1
TAP	26	0	1
TAP	26	192	1
TAP	27	0	1
TAP	28	0	2
TAP	29	0	2
TAP	30	0	2
TAP	30	192	2
TAP	31	0	2
TAP	32	0	3
TAP	33	0	3
TAP	34	0	3
TAP	34	192	3
TAP	35	0	3
TAP	36	0	4
TAP	37	0	4
HLD	38	0	3	384
HLD	38	0	4	384
TTP	40	0	5	B	0	L1
TTP	42	0	6	B	0	L1
TTP	44	0	7	B	0	L1
TTP	46	0	0	B	0	L1
TTP	48	0	1	B	0	L1
TTP	50	0	2	B	0	L1
THO	52	0	0	1536	C	1	L1
TAP	58	0	7
TAP	58	192	7
TAP	59	0	7
TAP	60	0	6
TAP	60	192	6
TAP	61	0	6
TAP	62	0	5
TAP	62	192	5
TAP	63	0	5
TAP	64	0	4
TAP	64	192	4
TAP	65	0	4
HLD	66	0	3	384
HLD	68	0	4	384
HLD	70	0	3	384
STR	72	0	4
SI_	72	0	4	96	672	7
TAP	76	0	0
TAP	76	192	0
TAP	77	0	0
TAP	78	0	1
TAP	78	192	1
TAP	79	0	1
TAP	80	0	2
TAP	80	192	2
TAP	81	0	2
TAP	82	0	3
TAP	82	192	3
XTP	83	0	3
XTP	83	0	4
TAP	84	0	5
TAP	84	192	5
TAP	85	0	5
TAP	86	0	6
TAP	86	192	6
TAP	87	0	6
TAP	88	0	7
TAP	88	192	7
TAP	89	0	0
TAP	89	192	0
TAP	90	0	0
TAP	90	0	7
TAP	91	0	0
TAP	91	0	7
TAP	92	0	0
TAP	92	192	7
BRK	93	0	0
TAP	94	0	7
TAP	94	192	7
TAP	95	0	7
TAP	96	0	6
TAP	96	192	6
TAP	97	0	6
TAP	98	0	5
TAP	98	192	5
TAP	99	0	4
TAP	99	192	4
TAP	100	0	3
TAP	100	192	3
TAP	101	0	3
TAP	101	0	4
TAP	102	0	3
TAP	102	0	4
TAP	103	0	3
TAP	103	192	3
XTP	104	0	2
XTP	104	0	3
TAP	105	0	4
TAP	105	192	4
XTP	106	0	4
XTP	106	0	5
TAP	107	0	3
TAP	107	0	4
BRK	107	192	3
BRK	107	192	4
TAP	108	0	2
TAP	108	192	2
TAP	109	0	2
TAP	110	0	1
TAP	110	192	1
TAP	111	0	1
TAP	112	0	0
TAP	112	192	0
TAP	113	0	0
TAP	114	0	7
TAP	114	192	7
TAP	115	0	0
TAP	115	192	0
TAP	116	0	0
TAP	116	0	7
TAP	117	0	0
TAP	117	192	0
XTP	118	0	0
XTP	118	0	1
TAP	119	0	7
TAP	119	192	7
XTP	120	0	6
XTP	120	0	7
TAP	121	0	0
TAP	121	0	7
TAP	121	192	0
TAP	121	192	7
XHO	122	0	1	384
XHO	122	0	6	384
TAP	124	0	0
TAP	124	192	0
TAP	125	0	0
TAP	126	0	7
TAP	126	192	7
TAP	127	0	7
TAP	128	0	6
TAP	128	192	6
TAP	129	0	5
TAP	129	192	5
TAP	130	0	4
TAP	130	192	4
XTP	131	0	3
XTP	131	0	4
TAP	132	0	3
TAP	132	192	3
XTP	133	0	2
XTP	133	0	4
TAP	134	0	4
TAP	134	192	4
XTP	135	0	3
XTP	135	0	5
TAP	136	0	3
TAP	136	192	4
XTP	137	0	3
XTP	137	0	4
XHO	138	0	4	288
XHO	138	0	5	288
XHO	139	192	2	288
XHO	139	192	3	288
XHO	141	0	3	480
XHO	141	0	4	480

T_REC_TAP	125
T_REC_BRK	3
T_REC_XTP	18
T_REC_HLD	6
T_REC_XHO	9
T_REC_STR	1
T_REC_BST	0
T_REC_XST	0
T_REC_TTP	6
T_REC_THO	1
T_REC_SLD	1
T_REC_ALL	170
T_NUM_TAP	150
T_NUM_BRK	3
T_NUM_HLD	16
T_NUM_SLD	1
T_NUM_ALL	170
T_JUDGE_TAP	153
T_JUDGE_HLD	78
T_JUDGE_SLD	1
T_JUDGE_ALL	232
TTM_EACHPAIRS	23
TTM_SCR_TAP	75000
TTM_SCR_BRK	7800
TTM_SCR_HLD	16000
TTM_SCR_SLD	1500
TTM_SCR_ALL	100300
TTM_SCR_S	97000
TTM_SCR_SS	100000
TTM_RAT_ACV	10030

