VERSION	0.00.00	1.03.00
FES_MODE	0
BPM_DEF	260.000	260.000	260.000	260.000
MET_DEF	4	4
RESOLUTION	384
CLK_DEF	384
COMPATIBLE_CODE	MA2

BPM	0	0	260.000
MET	0	0	4	4
CLK	0	0
CLK	0	96
CLK	0	192
CLK	0	288

XTP	10	0	2
XTP	10	0	3
TAP	10	96	1
TAP	10	96	4
TAP	10	192	2
TAP	10	192	3
TAP	10	288	0
TAP	11	0	2
TAP	11	0	3
TAP	11	96	2
TAP	11	144	4
TAP	11	240	4
TAP	11	288	3
TAP	12	0	4
TAP	12	0	5
TAP	12	96	3
TAP	12	96	6
TAP	12	192	4
TAP	12	192	5
TAP	12	288	7
TAP	13	0	4
TAP	13	0	5
TAP	13	96	5
TAP	13	144	3
TAP	13	240	3
TAP	13	288	4
XTP	14	0	2
XTP	14	0	3
TAP	14	96	1
TAP	14	96	4
TAP	14	192	2
TAP	14	192	3
TAP	14	288	0
TAP	15	0	2
TAP	15	0	3
TAP	15	96	2
TAP	15	144	4
TAP	15	240	4
TAP	15	288	3
TAP	16	0	4
TAP	16	0	5
TAP	16	96	3
TAP	16	96	6
TAP	16	192	4
TAP	16	192	5
TAP	16	288	7
TAP	17	0	4
TAP	17	0	5
TAP	17	96	5
TAP	17	144	3
TAP	17	240	3
TAP	17	288	4
XHO	18	0	1	576
XHO	18	0	5	576
XTP	19	288	3
XTP	19	288	4
XHO	20	0	2	288
XHO	20	0	6	288
TAP	21	0	4
TAP	21	64	3
TAP	21	96	4
TAP	21	160	3
BRK	21	192	4
TAP	22	0	3
TAP	22	0	5
TAP	22	96	2
TAP	22	192	2
TAP	22	192	4
TAP	22	288	5
TAP	22	336	4
TAP	23	48	4
TAP	23	96	5
TAP	23	192	3
TAP	23	192	6
TAP	23	288	2
TAP	24	0	2
TAP	24	0	4
TAP	24	96	5
TAP	24	192	3
TAP	24	192	5
TAP	24	288	2
TAP	24	336	3
TAP	25	48	3
TAP	25	96	2
TAP	25	192	1
TAP	25	192	4
TAP	25	288	5
XST	26	0	2
SI_	26	0	2	96	96	7
XTP	26	0	5
TAP	26	96	4
STR	26	192	5
SI_	26	192	5	96	96	0
TAP	26	288	3
STR	27	0	2
SI_	27	0	2	96	96	7
TAP	27	96	4
TAP	27	192	5
TAP	27	288	6
STR	28	0	0
SXL	28	0	0	96	192	0
HLD	28	0	7	96
HLD	28	192	5	96
HLD	29	0	2	96
STR	29	0	7
SI_	29	0	7	96	96	4
TAP	29	192	3
TAP	30	0	2
TAP	30	0	4
TAP	30	96	5
TAP	30	192	3
TAP	30	192	5
TAP	30	288	2
TAP	30	336	3
TAP	31	48	3
TAP	31	96	2
TAP	31	192	1
TAP	31	192	4
TAP	31	288	5
TAP	32	0	3
TAP	32	0	5
TAP	32	96	2
TAP	32	192	2
TAP	32	192	4
TAP	32	288	5
TAP	32	336	4
TAP	33	48	4
TAP	33	96	5
TAP	33	192	3
TAP	33	192	6
TAP	33	288	2
XTP	34	0	2
XST	34	0	5
SI_	34	0	5	96	96	0
TAP	34	96	3
STR	34	192	2
SI_	34	192	2	96	96	7
TAP	34	288	4
STR	35	0	5
SI_	35	0	5	96	96	0
TAP	35	96	3
TAP	35	192	2
TAP	35	288	2
TTP	36	0	7	E	0	M1
TTP	36	96	5	E	0	M1
TTP	36	192	3	E	0	M1
TTP	36	288	1	E	0	M1
TTP	37	0	5	B	0	M1
TTP	37	96	1	B	0	M1
TTP	37	192	0	C	1	M1
TAP	38	0	3
TAP	38	0	4
TAP	38	96	2
HLD	38	144	2	96
HLD	38	240	3	96
HLD	38	336	4	96
TAP	39	48	5
TAP	39	144	6
TAP	39	192	4
TAP	39	192	6
TAP	39	288	5
TAP	40	0	5
TAP	40	96	3
TAP	40	96	6
TAP	40	192	5
TAP	40	240	3
TAP	40	288	4
HLD	40	336	2	96
TAP	41	48	3
TAP	41	96	3
TAP	41	192	1
TAP	41	192	4
TAP	42	0	1
TAP	42	0	3
TAP	42	96	2
TAP	42	144	4
TAP	42	192	3
TAP	42	192	4
TAP	42	288	5
HLD	42	336	5	96
TAP	43	48	4
TAP	43	96	4
TAP	43	192	3
TAP	43	192	5
TAP	43	288	3
TAP	43	288	5
HLD	44	0	6	96
HLD	44	96	7	96
HLD	44	192	0	96
TAP	44	288	1
TAP	44	336	1
TAP	45	48	7
TAP	45	96	7
TAP	45	192	2
TAP	45	192	5
TAP	46	0	3
TAP	46	0	4
TAP	46	96	5
HLD	46	144	5	96
HLD	46	240	4	96
HLD	46	336	3	96
TAP	47	48	2
TAP	47	96	2
TAP	47	192	1
TAP	47	192	3
TAP	47	288	2
TAP	48	0	2
TAP	48	96	1
TAP	48	96	4
TAP	48	192	2
TAP	48	240	4
TAP	48	288	3
HLD	48	336	5	96
TAP	49	48	4
TAP	49	96	4
TAP	49	192	3
TAP	49	192	6
TAP	50	0	4
TAP	50	0	6
TAP	50	96	5
TAP	50	144	3
TAP	50	192	3
TAP	50	192	4
TAP	50	288	2
HLD	50	336	2	96
TAP	51	48	3
TAP	51	96	3
TAP	51	192	2
TAP	51	192	4
TAP	51	288	2
TAP	51	288	4
HLD	52	0	5	96
TTP	52	96	3	B	0	M1
TTP	52	96	4	B	0	M1
HLD	52	192	1	96
TTP	52	288	1	B	0	M1
TTP	52	288	2	B	0	M1
HLD	53	0	6	96
TTP	53	96	5	B	0	M1
TTP	53	96	6	B	0	M1
HLD	53	192	2	96
TTP	53	288	3	B	0	M1
TTP	53	288	4	B	0	M1
TAP	54	0	7
STR	54	96	7
SCL	54	96	7	96	192	0
TAP	54	192	0
TTP	55	0	0	C	1	M1
TTP	55	0	3	B	0	M1
TTP	55	0	4	B	0	M1
BRK	55	192	2
BRK	55	192	6
BRK	55	288	0
BRK	55	288	4
XTP	56	0	1
XST	56	0	7
SI_	56	0	7	96	48	3
TAP	56	96	2
STR	56	192	0
SI_	56	192	0	96	48	4
TAP	56	192	6
TAP	56	288	5
TAP	57	0	1
STR	57	0	7
SI_	57	0	7	96	48	3
TAP	57	96	2
TAP	57	192	0
TAP	57	192	6
TAP	57	240	5
TAP	57	288	2
HLD	57	288	4	96
STR	58	0	0
SI_	58	0	0	96	48	4
TAP	58	96	5
TAP	58	192	1
STR	58	192	7
SI_	58	192	7	96	48	3
TAP	58	288	2
STR	59	0	0
SI_	59	0	0	96	48	4
TAP	59	0	5
TAP	59	96	6
TAP	59	192	3
TAP	59	192	7
BRK	59	240	3
BRK	59	240	7
TAP	60	0	1
STR	60	0	5
SCL	60	0	5	96	96	2
TAP	60	96	0
TAP	60	192	7
TAP	60	288	0
STR	61	0	2
SCR	61	0	2	96	96	5
TAP	61	0	6
TAP	61	96	7
TAP	61	192	0
TAP	61	288	7
HLD	62	0	1	144
TAP	62	0	6
TTP	62	144	0	C	0	M1
TTP	62	144	2	B	0	M1
TTP	62	144	3	B	0	M1
TAP	62	288	0
TAP	62	288	7
TAP	63	0	1
HLD	63	0	6	144
TTP	63	144	0	C	1	M1
TTP	63	144	4	B	0	M1
TTP	63	144	5	B	0	M1
XST	64	0	0
SI_	64	0	0	96	48	4
XTP	64	0	6
TAP	64	96	5
TAP	64	192	1
STR	64	192	7
SI_	64	192	7	96	48	3
TAP	64	288	2
STR	65	0	0
SI_	65	0	0	96	48	4
TAP	65	0	6
TAP	65	96	5
TAP	65	192	1
TAP	65	192	7
TAP	65	240	2
HLD	65	288	3	96
TAP	65	288	5
STR	66	0	7
SI_	66	0	7	96	48	3
TAP	66	96	2
STR	66	192	0
SI_	66	192	0	96	48	4
TAP	66	192	6
TAP	66	288	5
TAP	67	0	1
STR	67	0	7
SI_	67	0	7	96	48	3
TAP	67	96	2
TAP	67	192	0
TAP	67	192	5
BRK	67	240	0
BRK	67	240	5
TAP	68	0	2
STR	68	0	6
SCL	68	0	6	96	96	2
TAP	68	96	1
TAP	68	192	0
TAP	68	288	7
STR	69	0	2
SCL	69	0	2	96	96	6
TAP	69	0	6
TAP	69	96	5
TAP	69	192	4
TAP	69	288	3
XHO	70	0	2	576
BRK	70	0	6
TTP	71	0	0	B	0	M1
TTP	71	16	1	B	0	M1
TTP	71	32	2	B	0	M1
TTP	71	48	3	B	0	M1
TTP	71	64	4	B	0	M1
TTP	71	80	5	B	0	M1
XTP	71	144	7
XTP	71	192	7
XHO	71	336	6	96
XHO	71	336	7	96
XTP	72	96	6
XTP	72	96	7
TAP	72	192	0
TAP	72	240	0
TAP	72	288	3
HLD	72	336	2	96
HLD	72	336	4	96
TAP	73	96	2
TAP	73	96	4
TAP	73	192	1
TAP	73	192	7
TAP	73	288	0
TAP	73	288	4
TAP	73	336	0
TAP	73	336	4
TAP	74	48	1
TAP	74	96	3
TAP	74	144	1
TAP	74	192	3
TAP	74	240	1
TAP	74	288	5
TAP	74	336	1
TAP	75	0	7
TAP	75	48	1
TAP	75	96	5
TAP	75	144	1
TAP	75	192	3
TAP	75	240	1
TAP	75	288	3
XHO	75	336	1	96
XHO	75	336	3	96
XTP	76	96	1
XTP	76	96	3
TAP	76	192	0
TAP	76	240	0
TAP	76	288	7
HLD	76	336	1	96
TAP	77	48	3
TAP	77	96	3
TAP	77	192	7
TAP	77	240	7
TAP	77	288	4
TAP	77	288	6
XTP	78	0	2
XTP	78	0	3
XTP	78	48	2
XTP	78	48	3
BRK	78	144	0
BRK	78	144	4
XTP	78	240	4
XTP	78	240	5
XTP	78	288	4
XTP	78	288	5
BST	79	0	3
SCL	79	0	3	96	96	7
BST	79	0	7
SCL	79	0	7	96	96	3
XHO	79	336	2	96
XHO	79	336	4	96
XTP	80	96	2
XTP	80	96	4
TAP	80	192	0
TAP	80	240	0
TAP	80	288	6
HLD	80	336	3	96
HLD	80	336	5	96
TAP	81	96	3
TAP	81	96	5
TAP	81	192	0
TAP	81	192	6
TAP	81	288	3
TAP	81	288	7
TAP	81	336	3
TAP	81	336	7
TAP	82	48	6
TAP	82	96	4
TAP	82	144	6
TAP	82	192	4
TAP	82	240	6
TAP	82	288	2
TAP	82	336	6
TAP	83	0	0
TAP	83	48	6
TAP	83	96	2
TAP	83	144	6
TAP	83	192	4
TAP	83	240	6
TAP	83	288	4
HLD	83	336	4	96
HLD	83	336	6	96
TAP	84	96	4
TAP	84	96	6
TAP	84	192	5
TAP	84	240	4
TAP	84	288	3
HLD	84	336	2	240
TAP	85	96	4
TAP	85	192	4
HLD	86	0	6	144
HLD	86	144	5	144
TAP	86	288	4
HLD	87	0	2	144
HLD	87	144	3	144
TAP	87	288	4
HLD	88	0	5	144
HLD	88	144	4	144
STR	88	288	3
SUR	88	288	3	96	288	4
TAP	90	0	6
TAP	90	192	7
TAP	90	288	7
HLD	91	0	7	144
HLD	91	144	5	144
TAP	91	288	4
HLD	92	0	0	144
HLD	92	144	2	144
TAP	92	288	3
TAP	93	0	3
TAP	93	0	4
TAP	93	96	3
TAP	93	96	4
TAP	93	192	2
TAP	93	192	5
HLD	94	0	2	144
HLD	94	144	1	144
TAP	94	288	0
HLD	95	0	5	144
HLD	95	144	6	144
TAP	95	288	7
HLD	96	0	2	144
HLD	96	144	1	144
STR	96	288	0
SUL	96	288	0	96	288	7
TAP	98	0	6
TAP	98	192	4
TAP	98	288	3
HLD	99	0	2	144
HLD	99	144	1	144
STR	99	288	0
SCR	99	288	0	96	288	7
TTP	101	0	0	C	0	M1
TTP	101	0	1	B	0	M1
TTP	101	0	6	B	0	M1
TAP	102	0	3
HLD	102	0	4	1440
TAP	102	96	3
TAP	102	288	5
TAP	103	96	5
TAP	103	288	5
TAP	104	96	5
TAP	104	288	5
TAP	105	96	5
TAP	105	288	5
XTP	106	0	3
XTP	106	0	5
XTP	106	192	2
XTP	106	192	4
XTP	107	0	4
XTP	107	0	5
XST	107	192	2
SXL	107	192	2	96	384	3
SLL	107	192	2	96	384	3
XTP	107	192	3
BRK	109	0	7
BRK	109	192	1
BRK	109	192	5
BRK	109	288	3
BRK	109	288	7
XST	110	0	0
SI_	110	0	0	96	48	4
XTP	110	0	6
TAP	110	96	4
TAP	110	192	1
STR	110	192	7
SI_	110	192	7	96	48	3
TAP	110	288	2
STR	111	0	1
SI_	111	0	1	96	48	5
TAP	111	0	6
TAP	111	96	5
TAP	111	192	0
TAP	111	192	6
TAP	111	240	1
HLD	111	288	2	96
TAP	111	288	4
XST	112	0	7
SI_	112	0	7	96	48	3
TAP	112	96	3
STR	112	192	0
SI_	112	192	0	96	48	4
TAP	112	192	6
TAP	112	288	5
TAP	113	0	1
STR	113	0	6
SI_	113	0	6	96	48	2
TAP	113	96	2
TAP	113	192	0
TAP	113	192	4
BRK	113	240	0
BRK	113	240	4
STR	114	0	2
SCR	114	0	2	96	96	5
TAP	114	0	6
TAP	114	96	7
TTP	114	192	1	E	0	M1
TTP	114	288	0	E	0	M1
TAP	115	0	1
STR	115	0	5
SCL	115	0	5	96	96	2
TAP	115	96	0
TTP	115	192	7	E	0	M1
TTP	115	288	0	E	0	M1
TAP	116	0	1
HLD	116	0	5	144
TTP	116	144	0	C	0	M1
TTP	116	144	4	B	0	M1
TTP	116	144	5	B	0	M1
TAP	116	288	0
TAP	116	288	1
HLD	117	0	2	144
TAP	117	0	7
TTP	117	144	0	C	1	M1
TTP	117	144	2	B	0	M1
TTP	117	144	3	B	0	M1
XST	118	0	0
SI_	118	0	0	96	48	4
XST	118	0	7
SI_	118	0	7	96	48	3
XTP	118	96	0
XTP	118	96	7
BRK	118	192	1
BRK	118	192	6
TAP	118	288	4
TAP	119	0	0
STR	119	0	7
SI_	119	0	7	96	48	3
TAP	119	96	2
TAP	119	192	0
TAP	119	192	6
TAP	119	240	5
TAP	119	288	2
HLD	119	288	4	96
STR	120	0	0
SI_	120	0	0	96	48	4
TAP	120	96	5
TAP	120	192	1
STR	120	192	7
SI_	120	192	7	96	48	3
TAP	120	288	2
STR	121	0	1
SI_	121	0	1	96	48	5
TAP	121	0	6
TAP	121	96	5
TAP	121	192	3
TAP	121	192	7
BRK	121	240	3
BRK	121	240	7
STR	122	0	1
SCR	122	0	1	96	96	5
TAP	122	0	5
TAP	122	96	6
TTP	122	192	0	E	0	M1
TTP	122	288	1	E	0	M1
TAP	123	0	1
STR	123	0	5
SCR	123	0	5	96	96	1
TAP	123	96	2
TTP	123	192	4	E	0	M1
TTP	123	288	5	E	0	M1
STR	124	0	1
SI_	124	0	1	96	48	3
HLD	124	0	5	96
HLD	124	192	2	96
STR	124	192	6
SI_	124	192	6	96	48	4
STR	125	0	1
SI_	125	0	1	96	48	4
HLD	125	0	7	96
HLD	125	192	0	96
STR	125	192	6
SI_	125	192	6	96	48	3
XHO	126	0	2	768
BRK	126	0	7
TAP	126	96	7
TAP	126	192	3
TAP	126	240	3
TAP	126	336	4
TAP	127	96	5
TAP	127	192	6
TAP	127	288	6
STR	128	0	5
SXR	128	0	5	96	192	6
TAP	128	96	1
TAP	128	192	0
TAP	128	288	1
STR	129	0	2
SXL	129	0	2	96	192	1
TAP	129	96	6
TAP	129	192	7
TAP	129	288	6
BRK	130	0	0
XHO	130	0	5	768
TAP	130	96	0
TAP	130	192	4
TAP	130	240	4
TAP	130	336	3
TAP	131	96	2
TAP	131	192	1
TAP	131	288	0
STR	132	0	1
SXL	132	0	1	96	192	7
TAP	132	96	5
TAP	132	192	6
TAP	132	288	5
STR	133	0	6
SXR	133	0	6	96	192	0
TAP	133	96	1
TAP	133	192	2
TAP	133	288	1
XHO	134	0	2	768
BRK	134	0	7
TAP	134	192	3
TAP	134	240	3
TAP	134	336	4
TAP	135	96	5
TAP	135	192	6
TAP	135	288	6
STR	136	0	5
SXL	136	0	5	96	192	0
TAP	136	192	3
STR	137	0	2
SXR	137	0	2	96	192	7
TAP	137	192	4
XST	138	0	0
SI_	138	0	0	96	48	4
XTP	138	0	4
XST	138	96	6
SI_	138	96	6	96	48	3
XST	138	192	1
SI_	138	192	1	96	48	5
XST	138	288	7
SCL	138	288	7	96	96	3
XST	139	0	3
SCL	139	0	3	96	96	7
XST	139	96	7
SCL	139	96	7	96	96	3
XST	139	192	3
SCL	139	192	3	96	96	7
XTP	139	288	7
THO	140	0	0	552	C	0	M1
BRK	141	288	0
BRK	141	288	7
XTP	141	304	1
XTP	141	304	6
XTP	141	320	2
XTP	141	320	5
XTP	141	336	3
XTP	141	336	4

T_REC_TAP	402
T_REC_BRK	28
T_REC_XTP	44
T_REC_HLD	59
T_REC_XHO	14
T_REC_STR	46
T_REC_BST	2
T_REC_XST	16
T_REC_TTP	47
T_REC_THO	1
T_REC_SLD	65
T_REC_ALL	724
T_NUM_TAP	555
T_NUM_BRK	30
T_NUM_HLD	74
T_NUM_SLD	65
T_NUM_ALL	724
T_JUDGE_TAP	585
T_JUDGE_HLD	157
T_JUDGE_SLD	65
T_JUDGE_ALL	807
TTM_EACHPAIRS	153
TTM_SCR_TAP	277500
TTM_SCR_BRK	78000
TTM_SCR_HLD	74000
TTM_SCR_SLD	97500
TTM_SCR_ALL	527000
TTM_SCR_S	508300
TTM_SCR_SS	524000
TTM_RAT_ACV	10057

