VERSION	0.00.00	1.03.00
FES_MODE	0
BPM_DEF	260.000	260.000	260.000	260.000
MET_DEF	4	4
RESOLUTION	384
CLK_DEF	384
COMPATIBLE_CODE	MA2

BPM	0	0	260.000
MET	0	0	4	4

HLD	6	0	3	1152
HLD	8	0	4	480
XTP	9	192	2
XTP	9	192	5
TAP	10	0	2
TAP	10	96	2
TAP	10	192	3
TAP	10	288	1
TAP	11	0	2
TAP	11	0	4
TAP	11	96	3
TAP	11	144	4
TAP	11	240	4
TAP	11	288	3
TAP	12	0	5
TAP	12	96	5
TAP	12	192	4
TAP	12	288	6
TAP	13	0	3
TAP	13	0	5
TAP	13	96	4
TAP	13	144	3
TAP	13	240	3
TAP	13	288	4
TAP	14	0	2
TAP	14	96	2
TAP	14	192	3
TAP	14	288	1
TAP	15	0	2
TAP	15	0	4
TAP	15	96	3
TAP	15	144	4
TAP	15	240	4
TAP	15	288	3
TAP	16	0	5
TAP	16	96	5
TAP	16	192	4
TAP	16	288	6
TAP	17	0	3
TAP	17	0	5
TAP	17	96	4
TAP	17	144	3
TAP	17	240	3
TAP	17	288	4
HLD	18	0	1	672
TAP	18	0	5
TAP	18	288	3
TAP	19	96	5
XTP	19	288	6
XHO	20	0	2	288
XHO	20	0	6	288
XTP	21	0	3
XTP	21	64	4
XTP	21	96	3
XTP	21	160	4
XTP	21	192	3
TAP	22	0	1
TAP	22	96	2
TAP	22	96	3
TAP	22	192	4
TAP	22	288	4
TAP	22	288	5
TAP	23	0	6
TAP	23	96	4
TAP	23	96	5
TAP	23	192	3
TAP	23	288	2
TAP	23	288	3
TAP	24	0	1
TAP	24	96	2
TAP	24	96	3
TAP	24	192	4
TAP	24	288	4
TAP	24	288	5
TAP	25	0	6
TAP	25	96	4
TAP	25	96	5
TAP	25	192	3
TAP	25	288	2
TAP	25	288	4
TAP	26	0	1
HLD	26	96	1	96
TAP	26	192	3
HLD	26	288	3	96
TAP	27	0	4
HLD	27	96	4	96
TAP	27	192	6
TAP	27	288	7
HLD	28	0	0	96
HLD	28	0	7	96
HLD	28	192	4	96
HLD	28	192	6	96
HLD	29	0	1	96
HLD	29	0	3	96
TAP	29	192	2
TAP	29	192	5
TAP	30	0	6
TAP	30	96	4
TAP	30	96	5
TAP	30	192	3
TAP	30	288	2
TAP	30	288	3
TAP	31	0	1
TAP	31	96	2
TAP	31	96	3
TAP	31	192	4
TAP	31	288	4
TAP	31	288	5
TAP	32	0	6
TAP	32	96	4
TAP	32	96	5
TAP	32	192	3
TAP	32	288	2
TAP	32	288	3
TAP	33	0	1
TAP	33	96	2
TAP	33	96	3
TAP	33	192	4
TAP	33	288	3
TAP	33	288	5
TAP	34	0	6
HLD	34	96	6	96
TAP	34	192	4
HLD	34	288	4	96
TAP	35	0	3
HLD	35	96	3	96
TAP	35	192	1
TAP	35	288	0
HLD	36	0	0	96
HLD	36	0	7	96
HLD	36	192	1	96
HLD	36	192	3	96
HLD	37	0	4	96
HLD	37	0	6	96
TAP	37	192	2
TAP	37	192	5
TAP	38	0	1
TAP	38	96	1
STR	38	192	1
SCR	38	192	1	96	288	4
TAP	39	0	5
TAP	39	96	5
TAP	39	192	6
TAP	40	0	6
TAP	40	96	6
STR	40	192	6
SCL	40	192	6	96	288	3
TAP	41	0	2
TAP	41	96	2
TAP	41	192	1
TAP	42	0	2
TAP	42	96	2
HLD	42	192	1	384
TAP	42	192	3
TTP	43	0	0	E	0	M1
TTP	43	96	0	C	0	M1
TTP	43	192	4	E	0	M1
TAP	44	0	5
TAP	44	96	5
TAP	44	192	4
HLD	44	192	6	192
TTP	45	0	0	E	0	M1
TTP	45	96	0	C	0	M1
TTP	45	192	4	E	0	M1
TAP	46	0	6
TAP	46	96	6
STR	46	192	6
SCL	46	192	6	96	288	3
TAP	46	192	7
TAP	47	0	1
TAP	47	96	1
TAP	47	192	0
TAP	48	0	1
TAP	48	96	1
TAP	48	192	0
STR	48	192	1
SCR	48	192	1	96	288	4
TAP	49	0	5
TAP	49	96	5
HLD	49	192	6	192
HLD	50	0	4	192
HLD	50	192	3	192
HLD	51	0	1	192
TAP	51	192	7
XTP	51	288	7
TAP	52	0	1
TAP	52	96	1
TAP	52	96	3
TAP	52	192	4
TAP	52	288	2
TAP	52	288	4
TAP	53	0	3
TAP	53	96	3
TAP	53	96	6
TAP	53	192	7
TAP	53	288	0
TAP	53	288	7
TAP	54	0	0
TAP	54	0	7
TAP	54	96	1
TAP	54	96	6
TAP	54	192	2
TAP	54	192	5
TAP	54	288	3
TAP	54	288	4
XTP	55	0	2
XTP	55	0	5
TAP	55	192	3
TAP	55	192	4
BRK	56	0	2
BRK	56	0	7
TAP	56	96	6
TAP	56	192	3
TAP	56	192	7
TAP	56	288	6
TAP	57	0	2
TAP	57	0	7
TAP	57	96	6
TAP	57	192	2
TAP	57	192	7
TAP	57	288	1
TAP	58	0	0
TAP	58	0	5
TAP	58	96	1
TAP	58	192	0
TAP	58	192	4
TAP	58	288	1
TAP	59	0	0
TAP	59	0	5
TAP	59	96	1
TAP	59	192	0
TAP	59	192	5
TAP	59	288	6
TAP	60	0	3
STR	60	0	7
SI_	60	0	7	96	96	4
STR	60	192	0
SI_	60	192	0	96	96	3
STR	61	0	7
SI_	61	0	7	96	96	4
TAP	61	192	0
TTP	62	0	0	C	1	M1
TTP	62	0	2	B	0	M1
TTP	62	0	6	B	0	M1
TTP	63	0	0	C	1	M1
TTP	63	0	1	B	0	M1
TTP	63	0	5	B	0	M1
BRK	64	0	0
BRK	64	0	5
TAP	64	96	1
TAP	64	192	0
TAP	64	192	4
TAP	64	288	1
TAP	65	0	0
TAP	65	0	5
TAP	65	96	1
TAP	65	192	0
TAP	65	192	5
TAP	65	288	6
TAP	66	0	2
TAP	66	0	7
TAP	66	96	6
TAP	66	192	3
TAP	66	192	7
TAP	66	288	6
TAP	67	0	2
TAP	67	0	7
TAP	67	96	6
TAP	67	192	2
TAP	67	192	7
TAP	67	288	1
HLD	68	0	1	96
HLD	68	0	4	96
HLD	68	192	3	96
HLD	68	192	5	96
HLD	69	0	2	96
HLD	69	0	4	96
HLD	69	192	3	96
HLD	69	192	6	96
XHO	70	0	2	384
XTP	70	0	5
XTP	71	0	4
XTP	71	64	3
XTP	71	96	4
XTP	71	160	3
XTP	71	192	4
XTP	71	240	3
XTP	71	240	4
XTP	71	336	2
XHO	71	336	5	144
TAP	72	96	4
TAP	72	192	3
TAP	72	192	6
TAP	72	240	3
TAP	72	240	6
XHO	72	336	2	144
XTP	72	336	5
TAP	73	96	3
TAP	73	192	1
TAP	73	192	4
TAP	73	240	1
TAP	73	240	4
XTP	73	336	2
XHO	73	336	6	144
TAP	74	96	7
TAP	74	192	4
TAP	74	192	6
TAP	74	288	2
TAP	75	0	1
TAP	75	0	4
TAP	75	96	0
XTP	75	192	1
XTP	75	192	4
XTP	75	240	1
XTP	75	240	4
XHO	75	336	2	144
XTP	75	336	6
TAP	76	96	3
TAP	76	192	1
TAP	76	192	4
TAP	76	240	1
TAP	76	240	4
XTP	76	336	1
XHO	76	336	5	144
TAP	77	96	4
XTP	77	192	3
XTP	77	192	6
XTP	77	288	1
XTP	77	288	4
TAP	78	0	0
TAP	78	0	7
TAP	78	48	0
TAP	78	48	7
TAP	78	144	4
TAP	78	144	6
TAP	78	240	1
TAP	78	240	3
XTP	78	336	0
XTP	79	0	0
TAP	79	96	1
TAP	79	96	6
TAP	79	192	3
TAP	79	192	4
TAP	79	240	3
TAP	79	240	4
XTP	79	336	2
XHO	79	336	6	144
TAP	80	96	7
TAP	80	192	0
TAP	80	192	5
TAP	80	240	0
TAP	80	240	5
XHO	80	336	1	144
XTP	80	336	6
TAP	81	96	0
TAP	81	192	2
TAP	81	192	7
TAP	81	240	2
TAP	81	240	7
XTP	81	336	1
XHO	81	336	5	144
TAP	82	96	4
TAP	82	192	5
TAP	82	288	6
TAP	83	0	0
TAP	83	0	7
TAP	83	96	0
TAP	83	96	1
XTP	83	192	2
XTP	83	192	7
XTP	83	240	2
XTP	83	240	7
XHO	83	336	3	96
XHO	83	336	5	96
TAP	84	96	3
TAP	84	96	5
TAP	84	192	7
TAP	84	240	7
XHO	84	336	0	96
XHO	84	336	6	96
TAP	85	96	0
TAP	85	96	6
TAP	85	192	2
TAP	85	192	4
STR	86	0	2
SCL	86	0	2	96	288	7
STR	87	0	6
SCL	87	0	6	96	288	3
STR	88	0	2
SCL	88	0	2	96	288	7
TAP	89	0	6
TAP	89	192	3
TAP	89	192	5
HLD	90	0	1	384
TAP	90	192	2
HLD	91	0	4	384
TAP	91	192	3
TTP	92	0	4	E	0	M1
TTP	92	192	0	C	0	M1
TTP	93	0	1	E	0	M1
TTP	93	0	7	E	0	M1
TTP	93	192	3	B	0	M1
TTP	93	192	4	B	0	M1
STR	94	0	5
SCL	94	0	5	96	288	2
STR	95	0	1
SCL	95	0	1	96	288	6
STR	96	0	5
SCL	96	0	5	96	288	2
TAP	97	0	1
TAP	97	192	2
TAP	97	192	4
HLD	98	0	5	384
TAP	98	288	4
HLD	99	0	4	384
TAP	99	288	3
HLD	100	0	3	384
TAP	100	288	2
HLD	101	0	2	192
HLD	101	192	4	192
TAP	102	0	3
HLD	102	96	3	672
TAP	102	288	4
TAP	103	96	4
TAP	103	288	4
HLD	104	0	4	768
TAP	104	96	3
TAP	104	288	3
TAP	105	96	3
TAP	105	288	3
XTP	106	0	3
XTP	106	192	1
XTP	106	192	3
XTP	107	0	3
XTP	107	0	4
XTP	107	192	4
XTP	107	192	6
XTP	108	0	0
XTP	108	0	7
XTP	108	96	1
XTP	108	96	6
XTP	108	192	2
XTP	108	192	5
XTP	108	288	3
XTP	108	288	4
XTP	109	0	1
XTP	109	0	6
HLD	109	192	3	96
HLD	109	192	4	96
XTP	110	0	3
XTP	110	0	7
TAP	110	96	6
TAP	110	192	4
TAP	110	192	7
TAP	110	288	6
TAP	111	0	3
TAP	111	0	7
TAP	111	96	6
TAP	111	192	3
TAP	111	192	7
TAP	111	288	2
TAP	112	0	0
TAP	112	0	4
TAP	112	96	1
TAP	112	192	0
TAP	112	192	3
TAP	112	288	1
TAP	113	0	0
TAP	113	0	4
TAP	113	96	1
TAP	113	192	0
TAP	113	192	4
TAP	113	288	5
TAP	114	0	3
STR	114	0	7
SCL	114	0	7	96	96	4
STR	114	192	0
SCR	114	192	0	96	96	3
STR	115	0	7
SCL	115	0	7	96	96	4
TAP	115	192	0
TTP	116	0	0	C	1	M1
TTP	116	0	2	B	0	M1
TTP	116	0	6	B	0	M1
TTP	117	0	0	C	1	M1
TTP	117	0	1	B	0	M1
TTP	117	0	5	B	0	M1
BRK	118	0	0
BRK	118	0	4
TAP	118	96	1
TAP	118	192	0
TAP	118	192	3
TAP	118	288	1
TAP	119	0	0
TAP	119	0	4
TAP	119	96	1
TAP	119	192	0
TAP	119	192	4
TAP	119	288	5
TAP	120	0	3
TAP	120	0	7
TAP	120	96	6
TAP	120	192	4
TAP	120	192	7
TAP	120	288	6
TAP	121	0	3
TAP	121	0	7
TAP	121	96	6
TAP	121	192	3
TAP	121	192	7
TAP	121	288	1
HLD	122	0	1	96
HLD	122	0	4	96
TAP	122	192	3
TAP	122	288	4
HLD	123	0	3	96
HLD	123	0	6	96
TAP	123	192	4
TAP	123	288	3
HLD	124	0	1	96
HLD	124	0	4	96
HLD	124	192	3	96
HLD	124	192	6	96
HLD	125	0	0	96
HLD	125	0	5	96
HLD	125	192	2	96
HLD	125	192	7	96
XTP	126	0	7
TAP	126	96	6
TAP	126	192	5
TAP	126	288	4
TAP	127	0	3
TAP	127	96	2
TAP	127	192	1
TAP	127	288	0
STR	128	0	0
SCR	128	0	0	96	96	3
STR	128	192	4
SCR	128	192	4	96	96	7
STR	129	0	3
SCL	129	0	3	96	96	0
TAP	129	192	7
TAP	129	288	7
XTP	130	0	0
TAP	130	96	1
TAP	130	192	2
TAP	130	288	3
TAP	131	0	4
TAP	131	96	5
TAP	131	192	6
TAP	131	288	7
STR	132	0	7
SCL	132	0	7	96	96	4
STR	132	192	3
SCL	132	192	3	96	96	0
STR	133	0	4
SCR	133	0	4	96	96	7
TAP	133	192	0
TAP	133	288	1
HLD	134	0	2	576
XTP	134	0	5
TTP	134	192	4	E	0	M1
TTP	135	0	1	E	0	M1
TTP	135	192	7	E	0	M1
XTP	136	0	1
HLD	136	0	6	576
TTP	136	192	5	E	0	M1
TTP	137	0	0	E	0	M1
TTP	137	192	3	E	0	M1
XTP	138	0	0
TAP	138	96	1
TAP	138	192	6
TAP	138	288	5
TAP	139	0	3
TAP	139	96	2
TAP	139	192	4
TAP	139	288	5
TAP	140	0	3
TAP	140	0	5
XHO	140	64	2	96
XHO	140	96	4	64
XHO	140	256	5	96
XHO	140	288	3	64
XHO	141	64	2	96
XHO	141	96	4	64
BRK	141	288	1
BRK	141	288	5

T_REC_TAP	359
T_REC_BRK	8
T_REC_XTP	65
T_REC_HLD	60
T_REC_XHO	21
T_REC_STR	22
T_REC_BST	0
T_REC_XST	0
T_REC_TTP	30
T_REC_THO	0
T_REC_SLD	22
T_REC_ALL	587
T_NUM_TAP	476
T_NUM_BRK	8
T_NUM_HLD	81
T_NUM_SLD	22
T_NUM_ALL	587
T_JUDGE_TAP	484
T_JUDGE_HLD	165
T_JUDGE_SLD	22
T_JUDGE_ALL	671
TTM_EACHPAIRS	146
TTM_SCR_TAP	238000
TTM_SCR_BRK	20800
TTM_SCR_HLD	81000
TTM_SCR_SLD	33000
TTM_SCR_ALL	372800
TTM_SCR_S	360850
TTM_SCR_SS	372000
TTM_RAT_ACV	10021

