VERSION	0.00.00	1.03.00
FES_MODE	0
BPM_DEF	260.000	260.000	260.000	260.000
MET_DEF	4	4
RESOLUTION	384
CLK_DEF	384
COMPATIBLE_CODE	MA2

BPM	0	0	260.000
MET	0	0	4	4

XHO	2	0	5	576
TAP	3	192	4
HLD	4	0	4	576
TAP	5	192	3
HLD	6	0	3	576
TAP	7	192	2
TAP	8	0	2
TAP	8	192	2
TAP	8	192	3
XTP	9	0	1
XTP	9	0	4
TAP	10	0	1
TAP	10	96	1
TAP	10	192	1
TAP	11	0	0
TAP	11	96	0
TAP	11	192	0
TAP	12	0	7
TAP	12	96	7
TAP	12	192	7
XTP	13	0	0
XTP	13	0	6
TAP	14	0	6
TAP	14	96	6
TAP	14	192	6
TAP	15	0	7
TAP	15	96	7
TAP	15	192	7
TAP	16	0	0
TAP	16	96	0
TAP	16	192	0
XTP	17	0	1
XTP	17	0	7
HLD	18	0	2	384
HLD	18	0	3	384
HLD	20	0	3	192
HLD	20	0	4	192
XTP	21	0	2
XTP	21	0	5
HLD	22	0	5	192
TAP	22	192	4
HLD	23	0	3	192
TAP	23	192	4
TAP	24	0	3
TAP	24	96	3
TAP	24	192	3
XTP	25	0	2
XTP	25	0	4
TAP	26	0	1
TAP	26	192	0
TAP	27	0	7
TAP	27	192	6
TAP	28	0	5
TAP	28	192	4
XTP	29	0	2
XTP	29	0	5
HLD	30	0	2	192
TAP	30	192	3
HLD	31	0	4	192
TAP	31	192	3
TAP	32	0	4
TAP	32	96	4
TAP	32	192	4
XTP	33	0	3
XTP	33	0	5
TAP	34	0	6
TAP	34	192	6
TAP	35	0	7
TAP	35	192	7
TAP	36	0	0
TAP	36	192	0
BRK	37	0	1
BRK	37	0	6
STR	38	0	0
SI_	38	0	0	96	384	3
STR	40	0	4
SI_	40	0	4	96	384	7
STR	42	0	0
SCR	42	0	0	96	384	3
TAP	44	0	4
TAP	44	192	4
XTP	45	0	4
STR	46	0	6
SI_	46	0	6	96	384	3
STR	48	0	2
SI_	48	0	2	96	384	7
STR	50	0	6
SCL	50	0	6	96	384	3
TAP	52	0	2
TAP	52	192	2
TAP	53	0	1
TAP	53	192	1
XTP	54	0	0
XTP	54	0	7
XTP	54	192	0
XTP	54	192	7
BRK	55	0	1
BRK	55	0	6
TAP	56	0	6
TAP	56	96	6
TAP	56	192	7
TAP	56	288	7
TAP	57	0	0
XTP	57	192	0
XTP	57	192	1
TAP	58	0	1
TAP	58	96	1
TAP	58	192	0
TAP	58	288	0
TAP	59	0	7
XTP	59	192	6
XTP	59	192	7
TAP	60	0	6
TAP	60	96	6
TAP	60	192	5
TAP	60	288	5
TAP	61	0	4
TAP	61	96	4
TAP	61	192	4
HLD	62	0	3	192
HLD	62	0	5	192
HLD	63	0	2	192
HLD	63	0	4	192
TAP	64	0	1
TAP	64	96	1
TAP	64	192	0
TAP	64	288	0
TAP	65	0	7
XTP	65	192	6
XTP	65	192	7
TAP	66	0	6
TAP	66	96	6
TAP	66	192	7
TAP	66	288	7
TAP	67	0	0
XTP	67	192	0
XTP	67	192	1
TAP	68	0	2
TAP	68	192	3
XTP	69	0	3
XTP	69	0	4
XTP	69	192	2
XTP	69	192	5
BRK	70	0	1
BRK	70	0	6
XST	72	0	6
SI_	72	0	6	96	336	4
XST	72	0	7
SI_	72	0	7	96	336	3
XST	74	0	0
SI_	74	0	0	96	336	4
XST	74	0	1
SI_	74	0	1	96	336	3
XST	76	0	0
SI_	76	0	0	96	336	3
XST	76	0	7
SI_	76	0	7	96	336	4
XTP	78	0	3
XTP	78	0	4
XTP	78	192	2
XTP	78	192	5
BRK	79	0	1
BRK	79	0	6
XST	80	0	0
SI_	80	0	0	96	336	4
XST	80	0	1
SI_	80	0	1	96	336	3
XST	82	0	6
SI_	82	0	6	96	336	4
XST	82	0	7
SI_	82	0	7	96	336	3
XST	84	0	0
SCR	84	0	0	96	336	3
XST	84	0	7
SCL	84	0	7	96	336	4
TTP	86	0	4	E	0	L1
TTP	87	0	0	C	0	L1
TTP	88	0	0	E	0	L1
TTP	90	0	1	E	0	L1
TTP	91	0	0	C	0	L1
TTP	92	0	5	E	0	L1
TTP	94	0	4	E	0	L1
TTP	95	0	3	E	0	L1
TTP	96	0	2	E	0	L1
TTP	97	0	1	E	0	L1
TTP	98	0	0	E	0	L1
TTP	99	0	7	E	0	L1
TTP	100	0	0	C	1	L1
HLD	102	0	2	768
HLD	104	0	3	768
TAP	106	0	4
TAP	106	192	4
TAP	107	0	5
TAP	107	192	5
XTP	108	0	3
XTP	108	0	4
XTP	108	192	2
XTP	108	192	5
BRK	109	0	1
BRK	109	0	6
TAP	110	0	1
TAP	110	96	1
TAP	110	192	0
TAP	110	288	0
TAP	111	0	7
XTP	111	192	0
XTP	111	192	6
TAP	112	0	5
TAP	112	96	5
TAP	112	192	4
TAP	112	288	4
TAP	113	0	3
XTP	113	192	2
XTP	113	192	4
TAP	114	0	1
TAP	114	96	1
TAP	114	192	2
TAP	114	288	2
TAP	115	0	3
TAP	115	96	3
TAP	115	192	3
HLD	116	0	2	192
HLD	116	0	4	192
HLD	117	0	3	192
HLD	117	0	5	192
TAP	118	0	6
TAP	118	96	6
TAP	118	192	7
TAP	118	288	7
TAP	119	0	0
XTP	119	192	1
XTP	119	192	7
TAP	120	0	2
TAP	120	96	2
TAP	120	192	3
TAP	120	288	3
TAP	121	0	4
XTP	121	192	3
XTP	121	192	5
TAP	122	0	6
TAP	122	96	6
TAP	122	192	5
TAP	122	288	5
TAP	123	0	4
TAP	123	96	4
TAP	123	192	3
TAP	123	288	3
TAP	124	0	3
XTP	124	192	2
XTP	124	192	4
XTP	125	0	3
XTP	125	0	5
BRK	125	192	1
BRK	125	192	6
TAP	126	192	2
TAP	126	288	2
TAP	127	0	3
TAP	127	96	3
TAP	127	192	4
TAP	127	288	4
TAP	128	0	5
TAP	128	96	5
TAP	128	192	5
TAP	129	0	6
TAP	129	0	7
XTP	129	192	0
XTP	129	192	5
TAP	130	192	5
TAP	130	288	5
TAP	131	0	4
TAP	131	96	4
TAP	131	192	3
TAP	131	288	3
TAP	132	0	2
TAP	132	96	2
TAP	132	192	2
TAP	133	0	0
TAP	133	0	1
XTP	133	192	2
XTP	133	192	7
TAP	134	192	2
TAP	134	288	2
TAP	135	0	3
TAP	135	96	3
TAP	135	192	4
TAP	135	288	4
TAP	136	0	4
TAP	136	192	4
TAP	136	192	5
XTP	137	0	3
XTP	137	0	6
TTP	138	0	6	E	0	L1
TTP	139	0	7	E	0	L1
THO	140	0	0	672	C	1	L1

T_REC_TAP	152
T_REC_BRK	12
T_REC_XTP	57
T_REC_HLD	20
T_REC_XHO	1
T_REC_STR	6
T_REC_BST	0
T_REC_XST	12
T_REC_TTP	15
T_REC_THO	1
T_REC_SLD	18
T_REC_ALL	294
T_NUM_TAP	242
T_NUM_BRK	12
T_NUM_HLD	22
T_NUM_SLD	18
T_NUM_ALL	294
T_JUDGE_TAP	254
T_JUDGE_HLD	77
T_JUDGE_SLD	18
T_JUDGE_ALL	349
TTM_EACHPAIRS	50
TTM_SCR_TAP	121000
TTM_SCR_BRK	31200
TTM_SCR_HLD	22000
TTM_SCR_SLD	27000
TTM_SCR_ALL	201200
TTM_SCR_S	194000
TTM_SCR_SS	200000
TTM_RAT_ACV	10060

