VERSION	0.00.00	1.03.00
FES_MODE	0
BPM_DEF	260.000	260.000	260.000	260.000
MET_DEF	4	4
RESOLUTION	384
CLK_DEF	384
COMPATIBLE_CODE	MA2

BPM	0	0	260.000
MET	0	0	4	4

TAP	10	0	3
TAP	12	0	3
TAP	14	0	4
TAP	16	0	4
HLD	18	0	3	384
HLD	20	0	4	384
TAP	22	0	3
TAP	23	0	3
TAP	24	0	2
TAP	25	0	2
HLD	26	0	1	384
TAP	28	0	0
TAP	28	192	0
XTP	29	0	0
TAP	30	0	7
TAP	31	0	7
TAP	32	0	6
TAP	33	0	6
HLD	34	0	5	384
TAP	36	0	4
TAP	36	192	4
BRK	37	0	4
TTP	38	0	3	B	0	L1
TTP	40	0	2	B	0	L1
TTP	42	0	1	B	0	L1
TTP	44	0	0	B	0	L1
TTP	44	0	7	B	0	L1
TTP	46	0	6	B	0	L1
TTP	48	0	5	B	0	L1
TTP	50	0	4	B	0	L1
THO	52	0	0	768	C	1	L1
TAP	56	0	0
TAP	56	192	0
TAP	57	0	0
TAP	58	0	1
TAP	58	192	1
TAP	59	0	1
TAP	60	0	2
TAP	60	192	2
TAP	61	0	3
TAP	61	192	3
HLD	62	0	3	384
HLD	62	0	4	384
TAP	64	0	4
TAP	64	192	4
TAP	65	0	4
TAP	66	0	5
TAP	66	192	5
TAP	67	0	5
TAP	68	0	6
TAP	68	192	6
TAP	69	0	7
TAP	69	192	7
XTP	70	0	0
XTP	70	0	7
XST	72	0	0
SI_	72	0	0	96	672	4
XST	76	0	7
SI_	76	0	7	96	672	3
XTP	80	0	3
XTP	80	192	3
XTP	81	0	2
XTP	81	0	4
XTP	82	0	4
XTP	82	192	4
XTP	83	0	3
XTP	83	0	5
XTP	84	0	3
XTP	84	192	3
XTP	85	0	4
XTP	85	192	4
HLD	86	0	5	384
HLD	88	0	4	384
HLD	90	0	3	384
HLD	92	0	2	384
TAP	94	0	1
TAP	95	0	1
TAP	96	0	0
TAP	97	0	0
TAP	98	0	7
TAP	99	0	7
TAP	100	0	0
TAP	100	192	0
TAP	101	0	0
TAP	101	0	7
XTP	102	0	6
TAP	104	0	5
TAP	106	0	4
TAP	107	0	4
TAP	108	0	3
TAP	108	0	4
TAP	108	192	3
TAP	108	192	4
BRK	109	0	3
BRK	109	0	4
TAP	110	0	4
TAP	110	192	4
TAP	111	0	4
TAP	112	0	5
TAP	112	192	5
TAP	113	0	5
TAP	114	0	6
TAP	114	192	6
TAP	115	0	7
TAP	115	192	7
TAP	116	0	0
TAP	116	192	0
XTP	117	0	0
XTP	117	0	7
TAP	118	0	1
TAP	118	192	1
TAP	119	0	1
TAP	120	0	2
TAP	120	192	2
TAP	121	0	2
TAP	122	0	3
TAP	122	192	3
TAP	123	0	4
TAP	123	192	4
TAP	124	0	3
TAP	124	0	4
TAP	124	192	3
TAP	124	192	4
XTP	125	0	2
XTP	125	0	5
TAP	126	0	3
TAP	126	192	3
XTP	127	0	2
XTP	127	0	3
TAP	128	0	4
TAP	128	192	4
XTP	129	0	4
XTP	129	0	5
TAP	130	0	3
TAP	130	192	3
TAP	131	0	4
TAP	131	192	4
TAP	132	0	3
TAP	132	192	4
XTP	133	0	2
XTP	133	0	5
HLD	134	0	2	384
HLD	134	0	4	384
HLD	136	0	3	384
HLD	136	0	5	384
TAP	138	0	4
TAP	138	192	4
TAP	139	0	3
TAP	139	192	3
BRK	140	0	4
TAP	140	192	4
HLD	141	0	5	288

T_REC_TAP	94
T_REC_BRK	4
T_REC_XTP	26
T_REC_HLD	15
T_REC_XHO	0
T_REC_STR	0
T_REC_BST	0
T_REC_XST	2
T_REC_TTP	8
T_REC_THO	1
T_REC_SLD	2
T_REC_ALL	152
T_NUM_TAP	130
T_NUM_BRK	4
T_NUM_HLD	16
T_NUM_SLD	2
T_NUM_ALL	152
T_JUDGE_TAP	134
T_JUDGE_HLD	67
T_JUDGE_SLD	2
T_JUDGE_ALL	203
TTM_EACHPAIRS	17
TTM_SCR_TAP	65000
TTM_SCR_BRK	10400
TTM_SCR_HLD	16000
TTM_SCR_SLD	3000
TTM_SCR_ALL	94400
TTM_SCR_S	91200
TTM_SCR_SS	94000
TTM_RAT_ACV	10042

