VERSION	0.00.00	1.03.00
FES_MODE	0
BPM_DEF	220.000	220.000	220.000	220.000
MET_DEF	4	4
RESOLUTION	384
CLK_DEF	384
COMPATIBLE_CODE	MA2

BPM	0	0	220.000
MET	0	0	4	4

TAP	2	0	1
TAP	2	0	6
TAP	2	96	1
TAP	2	96	6
TAP	2	192	0
TAP	2	192	7
TAP	2	240	0
TAP	2	240	7
TAP	2	288	1
TAP	2	288	6
TAP	2	336	2
TAP	2	336	5
TAP	3	0	3
TAP	3	0	4
STR	3	96	3
SV_	3	96	3	96	96	2
STR	3	96	4
SV_	3	96	4	96	96	5
TAP	4	0	7
TAP	4	48	7
STR	4	96	0
SI_	4	96	0	96	48	3
TAP	4	144	0
STR	4	192	7
SI_	4	192	7	96	48	4
TAP	4	240	7
TAP	4	288	0
HLD	5	0	0	48
HLD	5	0	7	48
HLD	5	96	0	48
HLD	5	96	7	48
HLD	5	192	1	48
HLD	5	192	7	48
HLD	5	288	0	48
HLD	5	288	6	48
TAP	6	0	1
TAP	6	0	5
TTP	6	96	0	B	0	M1
TTP	6	96	0	E	0	M1
TTP	6	96	7	B	0	M1
TAP	6	192	2
TAP	6	192	6
TTP	6	288	0	C	0	M1
TTP	6	288	2	B	0	M1
TTP	6	288	3	B	0	M1
TTP	6	288	4	B	0	M1
TTP	6	288	5	B	0	M1
STR	7	0	0
SCR	7	0	0	96	48	3
STR	7	0	7
SCL	7	0	7	96	48	4
HLD	7	192	1	48
HLD	7	192	6	48
HLD	7	288	0	48
HLD	7	288	7	48
TAP	8	0	2
TAP	8	0	6
STR	8	96	5
SI_	8	96	5	96	48	0
STR	8	192	2
SI_	8	192	2	96	48	7
TAP	8	288	5
TAP	8	336	5
HLD	9	0	5	144
TAP	9	144	3
HLD	9	192	3	96
HLD	9	192	5	96
TAP	9	336	6
TAP	10	0	6
TAP	10	48	1
TAP	10	96	1
TAP	10	144	7
TAP	10	192	7
TAP	10	240	0
XTP	10	288	0
XTP	10	312	1
XTP	10	336	2
XTP	10	360	3
TAP	11	0	4
TAP	11	0	5
TAP	11	96	4
TAP	11	96	5
TAP	11	192	5
TAP	11	240	4
TAP	11	288	3
TAP	11	336	2
TAP	11	336	3
TAP	12	48	4
TAP	12	48	5
TAP	12	96	4
TAP	12	96	5
TTP	12	192	0	C	0	M1
TTP	12	192	0	B	0	M1
TTP	12	192	1	B	0	M1
TTP	12	192	7	B	0	M1
TAP	13	0	2
TAP	13	0	3
TAP	13	96	2
TAP	13	96	3
TAP	13	192	2
TAP	13	240	3
TAP	13	288	4
TAP	13	336	4
TAP	13	336	5
XTP	14	0	4
XTP	14	0	5
XTP	14	96	6
XTP	14	96	7
XTP	14	192	0
XTP	14	192	1
XTP	14	240	2
XTP	14	240	7
XTP	14	288	3
XTP	14	288	6
XTP	14	336	4
XTP	14	336	5
TAP	15	0	4
TAP	15	0	5
STR	15	96	7
SI_	15	96	7	96	48	4
STR	15	192	3
SI_	15	192	3	96	48	0
TAP	15	288	7
STR	16	0	6
SI_	16	0	6	96	48	4
TAP	16	48	6
STR	16	96	2
SI_	16	96	2	96	48	0
TAP	16	144	2
STR	16	192	6
SI_	16	192	6	96	48	4
TAP	16	240	6
TAP	16	288	2
TAP	16	336	2
STR	17	0	2
SI_	17	0	2	96	48	0
STR	17	0	3
SI_	17	0	3	96	48	0
STR	17	192	4
SI_	17	192	4	96	48	7
STR	17	192	5
SI_	17	192	5	96	48	7
STR	18	0	2
SCL	18	0	2	96	48	0
STR	18	0	3
SV_	18	0	3	96	48	0
STR	18	192	4
SV_	18	192	4	96	48	7
STR	18	192	5
SCR	18	192	5	96	48	7
HLD	19	0	0	24
HLD	19	48	7	24
HLD	19	96	0	24
HLD	19	144	7	24
HLD	19	192	0	24
HLD	19	240	0	24
HLD	19	288	7	24
HLD	19	336	7	24
BST	20	0	0
SUR	20	0	0	96	192	3
HLD	21	0	3	48
HLD	21	0	5	48
HLD	21	96	2	48
HLD	21	96	4	48
HLD	21	192	3	48
HLD	21	192	5	48
HLD	21	288	2	48
HLD	21	288	4	48
TAP	22	0	1
TAP	22	48	0
TAP	22	96	7
TAP	22	144	6
HLD	22	192	3	48
HLD	22	192	5	48
TAP	22	288	3
TAP	22	288	5
TAP	23	0	0
TAP	23	0	7
TAP	23	48	6
TAP	23	96	5
TAP	23	144	4
TAP	23	192	3
TAP	23	240	2
TAP	23	288	1
TAP	23	288	6
TAP	23	336	0
TAP	23	336	7
TAP	24	0	0
TAP	24	0	7
TAP	24	48	1
TAP	24	96	2
TAP	24	96	3
TAP	24	144	2
TAP	24	144	3
TAP	24	192	2
TAP	24	192	3
TAP	24	240	1
TAP	24	288	0
TAP	24	288	7
TAP	24	336	0
TAP	24	336	7
TAP	25	0	0
TAP	25	0	7
TAP	25	48	6
TAP	25	96	5
TAP	25	144	4
TAP	25	192	3
TAP	25	240	2
TAP	25	288	1
TAP	25	336	0
BST	26	0	0
SUR	26	0	0	96	192	3
TTP	26	192	0	C	0	M1
TTP	27	0	7	E	0	M1
TTP	27	0	7	B	0	M1
TTP	27	48	4	B	0	M1
TTP	27	48	5	E	0	M1
TTP	27	96	0	B	0	M1
TTP	27	96	1	E	0	M1
TTP	27	144	3	E	0	M1
TTP	27	144	3	B	0	M1
TAP	27	240	1
TAP	27	240	6
TTP	27	336	0	B	0	M1
TTP	27	336	1	E	0	M1
TTP	27	336	7	E	0	M1
TTP	27	336	7	B	0	M1
TTP	28	48	0	C	0	M1
TTP	28	48	2	E	0	M1
TTP	28	48	6	E	0	M1
TTP	28	144	3	B	0	M1
TTP	28	144	3	E	0	M1
TTP	28	144	4	B	0	M1
TTP	28	144	5	E	0	M1
TAP	28	240	7
TAP	28	288	7
STR	28	336	0
SCR	28	336	0	96	96	3
TAP	29	48	4
TAP	29	96	4
TAP	29	192	7
TAP	29	240	6
TAP	29	288	5
STR	29	336	4
SI_	29	336	4	96	48	7
TAP	30	48	0
STR	30	96	0
SSL	30	96	0	96	96	4
XTP	30	192	7
TAP	31	0	5
TAP	31	48	5
TAP	31	96	0
HLD	31	144	0	96
TAP	31	240	7
TAP	31	336	1
TAP	31	336	6
TAP	32	48	2
TAP	32	48	3
STR	32	96	2
SCL	32	96	2	96	48	7
STR	32	96	3
SCR	32	96	3	96	48	6
TAP	32	192	2
TAP	32	192	3
TAP	32	336	0
TAP	32	336	7
TAP	33	48	4
TAP	33	48	5
STR	33	96	4
SCL	33	96	4	96	48	1
STR	33	96	5
SCR	33	96	5	96	48	0
TAP	33	192	4
TAP	33	192	5
TAP	33	336	0
TAP	33	336	7
TAP	34	48	2
TAP	34	48	4
TAP	34	96	2
STR	34	96	4
SI_	34	96	4	96	48	7
TAP	34	192	3
STR	34	240	3
SCL	34	240	3	96	240	4
TTP	34	336	0	C	1	M1
TAP	35	336	3
TAP	35	336	4
TAP	36	48	1
TAP	36	48	6
STR	36	96	0
SI_	36	96	0	96	48	4
STR	36	96	7
SI_	36	96	7	96	48	3
XTP	36	192	0
XTP	36	192	7
TAP	37	0	1
TAP	37	0	6
TTP	37	48	3	E	0	M1
TTP	37	48	5	E	0	M1
TAP	37	96	1
TAP	37	96	6
TTP	37	144	2	B	0	M1
TTP	37	144	5	B	0	M1
TAP	37	192	1
TAP	37	192	6
TAP	37	288	7
STR	37	336	7
SCL	37	336	7	96	48	4
TAP	38	48	2
STR	38	96	2
SCL	38	96	2	96	48	7
HLD	38	192	6	96
TAP	38	288	4
STR	38	336	4
SXR	38	336	4	96	96	3
TAP	39	48	5
TAP	39	96	6
HLD	39	144	7	96
TAP	39	240	2
TAP	39	288	1
HLD	39	336	0	96
TAP	40	48	7
STR	40	96	7
SCL	40	96	7	96	48	4
STR	40	192	0
SCR	40	192	0	96	48	3
TAP	40	288	7
TTP	41	0	5	E	0	M1
TTP	41	0	5	B	0	M1
TTP	41	0	6	B	0	M1
TTP	41	0	7	E	0	M1
TTP	41	96	0	E	0	M1
TTP	41	96	0	C	0	M1
TTP	41	96	4	E	0	M1
TTP	41	192	1	B	0	M1
TTP	41	192	1	E	0	M1
TTP	41	192	2	B	0	M1
TTP	41	192	3	E	0	M1
TAP	41	288	7
TAP	41	336	7
TAP	42	48	3
STR	42	96	3
SI_	42	96	3	96	48	0
STR	42	192	7
SI_	42	192	7	96	48	4
TTP	43	0	1	E	0	M1
TTP	43	0	1	B	0	M1
TTP	43	0	2	B	0	M1
TTP	43	0	3	E	0	M1
TTP	43	96	0	C	0	M1
TTP	43	96	0	E	0	M1
TTP	43	96	4	E	0	M1
TTP	43	192	5	E	0	M1
TTP	43	192	5	B	0	M1
TTP	43	192	6	B	0	M1
TTP	43	192	7	E	0	M1
TAP	43	288	0
TAP	43	336	0
TAP	44	48	4
STR	44	96	4
SI_	44	96	4	96	48	7
TAP	44	192	1
BRK	44	288	0
TAP	45	0	1
TAP	45	0	6
TTP	45	48	3	E	0	M1
TTP	45	48	5	E	0	M1
TAP	45	96	1
TAP	45	96	6
TTP	45	144	2	B	0	M1
TTP	45	144	5	B	0	M1
TAP	45	192	1
TAP	45	192	6
TAP	45	288	0
STR	45	336	0
SCR	45	336	0	96	48	3
TAP	46	48	5
STR	46	96	5
SCR	46	96	5	96	48	0
HLD	46	192	1	96
TAP	46	288	3
STR	46	336	3
SXL	46	336	3	96	96	4
TAP	47	48	2
TAP	47	96	1
HLD	47	144	0	96
TAP	47	240	5
TAP	47	288	6
HLD	47	336	7	96
TAP	48	48	0
STR	48	96	0
SI_	48	96	0	96	48	4
STR	48	192	7
SI_	48	192	7	96	48	3
STR	48	288	0
SCL	48	288	0	96	144	3
TAP	49	0	6
XTP	49	144	7
XTP	49	240	7
TAP	50	0	1
TAP	50	0	6
TAP	50	96	0
TAP	50	96	7
STR	50	144	0
SI_	50	144	0	96	48	4
STR	50	144	7
SI_	50	144	7	96	48	1
XTP	50	240	0
XTP	50	240	7
HLD	51	0	5	192
TAP	51	96	7
HLD	51	192	2	192
TAP	51	288	0
HLD	52	0	6	192
TAP	52	96	4
HLD	52	192	1	96
STR	52	288	3
SCR	52	288	3	96	1152	2
TTP	53	0	0	C	1	M1
HLD	57	0	2	96
HLD	57	0	4	96
TAP	57	192	4
TAP	57	240	4
HLD	57	336	3	96
HLD	57	336	5	96
TAP	58	96	3
TAP	58	96	5
TAP	58	192	4
TAP	58	240	4
HLD	58	336	2	96
HLD	58	336	4	96
TAP	59	96	2
TAP	59	96	4
TAP	59	192	1
TAP	59	240	1
HLD	59	336	0	96
HLD	59	336	7	96
TAP	60	96	0
TAP	60	96	7
HLD	60	192	4	96
HLD	60	192	6	96
HLD	61	0	3	96
HLD	61	0	5	96
TAP	61	192	3
TAP	61	240	3
HLD	61	336	2	96
HLD	61	336	4	96
HLD	62	144	3	96
HLD	62	144	5	96
TAP	62	288	3
TAP	62	288	5
HLD	63	0	2	96
HLD	63	0	4	96
TAP	63	144	2
TAP	63	144	4
TAP	63	240	3
TAP	63	288	3
HLD	63	336	3	96
HLD	63	336	5	96
HLD	64	144	2	96
HLD	64	144	4	96
TAP	64	288	2
TAP	64	288	4
BRK	65	0	0
HLD	65	0	6	192
HLD	65	336	2	240
BRK	65	336	4
BRK	67	0	3
HLD	67	0	5	192
HLD	67	336	0	144
BRK	67	336	7
TAP	68	192	0
TAP	68	192	7
TAP	68	288	1
TAP	68	288	6
TAP	69	0	2
TAP	69	0	5
TAP	69	96	2
TAP	69	96	5
TAP	69	192	2
TAP	69	192	5
TAP	69	288	2
TAP	69	288	6
TTP	70	0	0	E	0	M1
TAP	70	0	2
TAP	70	96	2
TTP	70	96	7	E	0	M1
TAP	70	192	2
TTP	70	192	6	E	0	M1
TAP	70	288	2
TTP	70	288	5	E	0	M1
TAP	71	0	2
TAP	71	0	5
TAP	71	96	2
TAP	71	96	5
TAP	71	192	2
TAP	71	192	5
TAP	71	288	1
TAP	71	288	5
TTP	72	0	0	E	0	M1
TAP	72	0	5
TTP	72	96	1	E	0	M1
TAP	72	96	5
TTP	72	192	2	E	0	M1
TAP	72	192	5
TTP	72	288	3	E	0	M1
TAP	72	288	5
HLD	73	0	6	96
HLD	73	96	4	96
TAP	73	192	3
HLD	73	240	3	96
HLD	73	336	1	96
HLD	74	48	0	96
HLD	74	144	7	96
HLD	74	240	6	96
HLD	74	336	4	96
TAP	75	48	3
HLD	75	96	3	96
TAP	75	192	1
HLD	75	240	1	96
HLD	75	336	0	96
TAP	76	48	7
STR	76	96	7
SCL	76	96	7	96	1344	0
XTP	76	192	7
HLD	83	0	0	288
TTP	83	0	7	E	0	M1
TTP	84	0	0	E	0	M1
HLD	84	0	1	288
TTP	85	0	1	E	0	M1
HLD	85	0	2	288
TTP	86	0	2	E	0	M1
HLD	86	0	3	288
TTP	87	0	3	E	0	M1
HLD	87	0	4	288
TTP	88	0	4	E	0	M1
HLD	88	0	5	672
TTP	90	0	5	E	0	M1
HLD	90	0	6	672
TTP	92	0	6	E	0	M1
HLD	92	0	7	768
THO	94	0	0	768	C	0	M1
TAP	97	192	1
TAP	97	192	6
TAP	97	240	1
TAP	97	240	6
TAP	97	336	2
TAP	97	336	5
TAP	98	48	6
STR	98	96	6
SI_	98	96	6	96	48	4
STR	98	96	7
SI_	98	96	7	96	48	4
XTP	98	192	6
XTP	98	192	7
TAP	98	288	0
TAP	98	288	7
TAP	98	336	0
TAP	98	336	7
TAP	99	48	1
STR	99	96	0
SI_	99	96	0	96	48	3
STR	99	96	1
SI_	99	96	1	96	48	3
XTP	99	192	0
XTP	99	192	1
TAP	99	288	0
TAP	99	288	7
TAP	99	336	0
TAP	99	336	7
TAP	100	48	6
STR	100	96	6
SI_	100	96	6	96	48	3
STR	100	96	7
SI_	100	96	7	96	48	3
XTP	100	192	6
XTP	100	192	7
TAP	100	288	0
TAP	100	288	7
TAP	100	336	0
TAP	100	336	7
TAP	101	48	1
STR	101	96	0
SI_	101	96	0	96	48	4
STR	101	96	1
SI_	101	96	1	96	48	4
XTP	101	192	0
XTP	101	192	1
TAP	101	288	0
TAP	101	288	7
HLD	101	336	0	96
TAP	101	336	7
TAP	102	48	4
TAP	102	96	4
TAP	102	192	6
TAP	102	240	7
TAP	102	288	0
TAP	102	336	1
TAP	103	48	3
TAP	103	48	4
BRK	103	144	1
BRK	103	144	6
TAP	104	0	2
TAP	104	0	6
TTP	104	48	4	E	0	M1
TTP	104	48	5	E	0	M1
TAP	104	96	2
TAP	104	96	6
TTP	104	144	3	B	0	M1
TTP	104	144	5	B	0	M1
TAP	104	192	2
TAP	104	192	6
TAP	104	288	0
STR	104	336	0
SCR	104	336	0	96	48	3
TAP	105	48	5
STR	105	96	5
SCR	105	96	5	96	48	0
HLD	105	192	1	96
TAP	105	288	3
TAP	105	336	1
TAP	105	336	3
TAP	106	144	0
TAP	106	144	7
TAP	106	336	4
TAP	106	336	6
TAP	107	48	7
TAP	107	96	0
TAP	107	96	7
TAP	107	192	1
TAP	107	192	3
TAP	107	288	3
TAP	107	288	4
TTP	108	0	1	B	0	M1
TTP	108	0	1	E	0	M1
TTP	108	0	2	B	0	M1
TTP	108	0	3	E	0	M1
TTP	108	96	0	C	0	M1
TTP	108	96	0	E	0	M1
TTP	108	96	4	E	0	M1
TTP	108	192	5	E	0	M1
TTP	108	192	5	B	0	M1
TTP	108	192	6	B	0	M1
TTP	108	192	7	E	0	M1
TAP	108	288	0
HLD	108	336	0	96
TAP	109	48	7
STR	109	96	7
SI_	109	96	7	96	48	4
STR	109	192	3
SI_	109	192	3	96	48	0
TAP	109	288	7
TTP	110	0	5	B	0	M1
TTP	110	0	5	E	0	M1
TTP	110	0	6	B	0	M1
TTP	110	0	7	E	0	M1
TTP	110	96	0	E	0	M1
TTP	110	96	0	C	0	M1
TTP	110	96	4	E	0	M1
TTP	110	192	1	E	0	M1
TTP	110	192	1	B	0	M1
TTP	110	192	2	B	0	M1
TTP	110	192	3	E	0	M1
TAP	110	288	7
TAP	110	336	7
TAP	111	48	3
STR	111	96	3
SI_	111	96	3	96	48	0
TAP	111	192	6
BRK	111	288	7
TAP	112	0	1
TAP	112	0	5
TTP	112	48	3	E	0	M1
TTP	112	48	4	E	0	M1
TAP	112	96	1
TAP	112	96	5
TTP	112	144	2	B	0	M1
TTP	112	144	4	B	0	M1
TAP	112	192	1
TAP	112	192	5
TAP	112	288	7
STR	112	336	7
SCL	112	336	7	96	48	4
TAP	113	48	2
STR	113	96	2
SCL	113	96	2	96	48	7
HLD	113	192	6	96
TAP	113	288	4
STR	113	336	4
SXR	113	336	4	96	96	3
TAP	114	48	5
TAP	114	96	6
HLD	114	144	7	96
TAP	114	240	2
TAP	114	288	1
HLD	114	336	0	96
TAP	115	48	7
STR	115	96	7
SI_	115	96	7	96	48	3
STR	115	192	0
SI_	115	192	0	96	48	4
STR	115	288	7
SCL	115	288	7	96	144	2
TAP	116	0	1
XTP	116	144	0
XTP	116	240	0
TAP	117	0	1
TAP	117	0	6
TAP	117	96	0
TAP	117	96	7
STR	117	144	0
SI_	117	144	0	96	48	6
STR	117	144	7
SI_	117	144	7	96	48	3
XTP	117	240	0
XTP	117	240	7
HLD	118	0	2	192
TAP	118	96	0
HLD	118	192	5	192
TAP	118	288	7
HLD	119	0	1	192
TAP	119	96	3
HLD	119	192	6	192
TAP	119	288	4
BRK	120	0	0
HLD	120	192	6	96
TTP	120	240	7	E	0	M1
TTP	120	264	6	E	0	M1
TTP	120	288	5	E	0	M1
HLD	120	336	1	96
TTP	121	0	1	E	0	M1
TTP	121	24	2	E	0	M1
TTP	121	48	3	E	0	M1
HLD	121	96	6	96
TTP	121	144	7	E	0	M1
TTP	121	168	6	E	0	M1
TTP	121	192	5	E	0	M1
HLD	121	240	1	96
TTP	121	288	1	E	0	M1
TTP	121	312	2	E	0	M1
TTP	121	336	3	E	0	M1
HLD	122	0	7	96
TTP	122	48	7	E	0	M1
TTP	122	72	6	E	0	M1
TTP	122	96	5	E	0	M1
HLD	122	144	0	96
TTP	122	192	1	E	0	M1
TTP	122	216	2	E	0	M1
TTP	122	240	3	E	0	M1
HLD	122	288	7	96
TTP	122	336	7	E	0	M1
TTP	122	360	6	E	0	M1
TTP	123	0	5	E	0	M1
HLD	123	48	0	96
TTP	123	96	1	E	0	M1
TTP	123	120	2	E	0	M1
TTP	123	144	3	E	0	M1
TAP	123	192	7
TAP	123	216	0
TAP	123	240	7
TAP	123	288	2
TAP	123	288	5
TAP	123	336	3
TAP	123	360	4
TAP	124	0	3
TAP	124	24	4
TAP	124	48	3
TAP	124	96	2
TAP	124	144	1
STR	124	192	0
SCR	124	192	0	96	96	3
TTP	124	288	3	E	0	M1
TTP	124	288	3	B	0	M1
TTP	124	336	5	B	0	M1
TTP	124	336	5	E	0	M1
TTP	125	48	0	C	0	M1
TAP	125	144	7
STR	125	192	7
SCL	125	192	7	96	96	4
TTP	125	288	4	B	0	M1
TTP	125	288	5	E	0	M1
TTP	125	336	2	B	0	M1
TTP	125	336	3	E	0	M1
TAP	126	48	1
TAP	126	48	6
TAP	126	96	1
TAP	126	96	6
HLD	126	192	2	96
TTP	126	240	3	E	0	M1
TTP	126	264	2	E	0	M1
TTP	126	288	1	E	0	M1
HLD	126	336	5	96
TTP	127	0	5	E	0	M1
TTP	127	24	6	E	0	M1
TTP	127	48	7	E	0	M1
HLD	127	96	3	96
TTP	127	144	3	E	0	M1
TTP	127	168	2	E	0	M1
TTP	127	192	1	E	0	M1
HLD	127	240	4	96
TTP	127	288	5	E	0	M1
TTP	127	312	6	E	0	M1
TTP	127	336	7	E	0	M1
TAP	128	0	3
TAP	128	24	4
TAP	128	48	3
TAP	128	72	4
STR	128	96	2
SI_	128	96	2	96	48	5
TAP	128	120	5
TAP	128	144	2
TAP	128	168	5

T_REC_TAP	348
T_REC_BRK	9
T_REC_XTP	36
T_REC_HLD	111
T_REC_XHO	0
T_REC_STR	74
T_REC_BST	2
T_REC_XST	0
T_REC_TTP	155
T_REC_THO	1
T_REC_SLD	76
T_REC_ALL	812
T_NUM_TAP	613
T_NUM_BRK	11
T_NUM_HLD	112
T_NUM_SLD	76
T_NUM_ALL	812
T_JUDGE_TAP	624
T_JUDGE_HLD	289
T_JUDGE_SLD	76
T_JUDGE_ALL	989
TTM_EACHPAIRS	151
TTM_SCR_TAP	306500
TTM_SCR_BRK	28600
TTM_SCR_HLD	112000
TTM_SCR_SLD	114000
TTM_SCR_ALL	561100
TTM_SCR_S	543200
TTM_SCR_SS	560000
TTM_RAT_ACV	10019

