VERSION	0.00.00	1.03.00
FES_MODE	0
BPM_DEF	220.000	220.000	220.000	220.000
MET_DEF	4	4
RESOLUTION	384
CLK_DEF	384
COMPATIBLE_CODE	MA2

BPM	0	0	220.000
MET	0	0	4	4
CLK	0	0
CLK	0	96
CLK	0	192
CLK	0	288

XTP	2	0	0
XTP	2	0	6
XTP	2	96	1
XTP	2	96	7
XTP	2	192	4
XTP	2	240	4
XTP	2	288	3
XTP	2	336	3
TAP	3	0	4
TAP	3	96	3
TAP	3	96	5
TAP	3	192	4
TAP	3	240	4
TAP	3	288	4
HLD	4	0	5	96
TAP	4	96	4
TAP	4	192	3
TAP	4	192	6
TAP	4	288	5
TAP	5	0	3
TAP	5	96	2
TAP	5	96	4
TAP	5	192	3
TAP	5	240	3
TAP	5	288	3
HLD	6	0	2	96
TAP	6	96	3
TAP	6	192	1
TAP	6	192	4
TAP	6	288	2
TAP	7	0	3
TAP	7	0	5
TAP	7	96	4
TAP	7	96	6
HLD	7	192	4	96
HLD	7	192	6	96
TAP	8	0	2
TAP	8	0	4
TAP	8	96	1
TAP	8	96	3
HLD	8	192	1	96
HLD	8	192	3	96
HLD	9	0	4	96
HLD	9	0	5	96
HLD	9	192	2	96
HLD	9	192	3	96
TAP	10	0	4
TAP	10	0	5
TAP	10	96	2
TAP	10	96	3
TAP	10	192	1
TAP	10	192	6
TAP	10	240	1
TAP	10	240	6
TAP	10	288	1
TAP	10	288	6
TTP	11	0	0	E	0	M1
TTP	11	96	0	C	0	M1
TTP	11	192	4	E	0	M1
TTP	11	288	0	B	0	M1
TTP	11	336	1	B	0	M1
TTP	12	48	5	B	0	M1
TTP	12	96	4	B	0	M1
TTP	12	192	2	B	0	M1
TTP	12	192	3	B	0	M1
TTP	12	192	6	B	0	M1
TTP	12	192	7	B	0	M1
TTP	13	0	0	E	0	M1
TTP	13	96	0	C	0	M1
TTP	13	192	4	E	0	M1
TTP	13	288	7	B	0	M1
TTP	13	336	6	B	0	M1
TTP	14	48	2	B	0	M1
TTP	14	96	3	B	0	M1
TTP	14	192	0	B	0	M1
TTP	14	192	1	B	0	M1
TTP	14	192	4	B	0	M1
TTP	14	192	5	B	0	M1
TAP	15	0	2
TAP	15	0	3
TAP	15	96	1
TAP	15	96	4
TAP	15	192	3
TAP	15	240	3
TAP	15	288	3
HLD	16	0	2	96
TAP	16	96	3
TAP	16	192	1
TAP	16	192	4
TAP	16	288	2
HLD	17	0	3	96
HLD	17	0	4	96
HLD	17	192	5	96
HLD	17	192	6	96
HLD	18	0	0	96
HLD	18	0	7	96
HLD	18	192	1	96
HLD	18	192	2	96
TAP	19	0	4
TAP	19	48	3
TAP	19	96	4
TAP	19	144	3
TAP	19	192	4
TAP	19	240	4
TAP	19	288	3
STR	19	336	3
SUR	19	336	3	96	240	4
TAP	21	0	4
TAP	21	0	5
TAP	21	96	3
TAP	21	96	6
TAP	21	192	4
TAP	21	240	4
TAP	21	288	4
HLD	22	0	5	96
TAP	22	96	4
TAP	22	192	3
TAP	22	192	6
XTP	22	288	2
XTP	22	288	7
STR	23	0	5
SI_	23	0	5	96	48	7
STR	23	192	2
SI_	23	192	2	96	48	0
STR	24	0	3
SI_	24	0	3	96	48	6
STR	24	192	4
SI_	24	192	4	96	48	1
TAP	25	0	6
TAP	25	0	7
TAP	25	96	0
TAP	25	96	1
TAP	25	192	6
TAP	25	192	7
TAP	25	288	0
STR	25	288	1
SXR	25	288	1	96	288	4
XTP	27	0	3
XTP	27	48	3
XTP	27	96	4
XTP	27	144	4
XTP	27	240	3
XTP	27	240	6
XTP	27	336	4
XTP	27	336	5
XTP	28	48	3
XTP	28	48	4
XTP	28	144	2
XTP	28	144	3
XTP	28	240	2
XTP	28	288	3
XTP	28	336	1
XTP	28	336	4
TAP	29	48	0
TAP	29	96	0
TAP	29	192	2
TAP	29	192	3
TAP	29	288	1
TAP	29	336	1
TAP	30	48	7
TAP	30	96	7
TAP	30	192	2
TAP	30	192	6
TAP	31	0	3
TAP	31	0	4
TAP	31	96	2
HLD	31	144	2	96
HLD	31	240	3	96
HLD	31	336	4	96
TAP	32	48	5
TAP	32	96	5
TAP	32	192	3
TAP	32	192	6
TAP	32	336	1
HLD	32	336	3	96
TAP	33	48	2
TAP	33	96	2
TAP	33	192	1
TAP	33	192	4
HLD	33	336	4	96
TAP	33	336	6
TAP	34	48	5
TAP	34	96	5
TAP	34	192	0
TAP	34	192	7
STR	34	240	0
SCR	34	240	0	96	264	7
TAP	34	240	7
XTP	35	336	2
XTP	35	336	5
XTP	36	48	3
XTP	36	48	4
XTP	36	96	3
XTP	36	96	4
BRK	36	192	1
BRK	36	192	6
XTP	37	0	4
XTP	37	0	6
XTP	37	48	5
XTP	37	96	4
XTP	37	96	6
XTP	37	144	5
XTP	37	192	4
XTP	37	192	6
TAP	37	288	2
TAP	37	288	3
TAP	37	336	2
TAP	37	336	3
TAP	38	48	0
TAP	38	48	1
TAP	38	96	0
STR	38	96	1
SI_	38	96	1	96	48	5
BRK	38	192	7
TAP	38	288	6
HLD	38	336	6	96
TAP	39	48	4
HLD	39	144	1	96
TAP	39	240	3
XTP	39	336	2
XTP	39	336	5
TAP	40	48	0
TAP	40	48	7
TAP	40	96	0
TAP	40	96	7
TAP	40	192	4
TAP	40	192	6
TAP	40	288	1
STR	40	288	3
SI_	40	288	3	96	48	6
STR	41	0	0
SI_	41	0	0	96	48	4
STR	41	96	7
SI_	41	96	7	96	48	3
TAP	41	192	1
TAP	41	288	0
TAP	41	336	0
TAP	42	48	2
HLD	42	96	2	96
TAP	42	192	3
STR	42	288	4
SI_	42	288	4	96	48	1
TAP	42	288	5
STR	43	0	7
SI_	43	0	7	96	48	3
STR	43	96	0
SI_	43	96	0	96	48	4
TAP	43	192	6
TAP	43	288	7
TAP	43	336	7
TAP	44	48	5
TAP	44	96	5
BRK	44	192	2
BRK	44	192	6
XTP	45	0	1
XTP	45	0	3
XTP	45	48	2
XTP	45	96	1
XTP	45	96	3
XTP	45	144	2
XTP	45	192	1
XTP	45	192	3
TAP	45	288	4
TAP	45	288	5
TAP	45	336	4
TAP	45	336	5
TAP	46	48	6
TAP	46	48	7
STR	46	96	6
SI_	46	96	6	96	48	2
TAP	46	96	7
BRK	46	192	0
TAP	46	288	1
HLD	46	336	1	96
TAP	47	48	3
HLD	47	144	6	96
TAP	47	240	4
XTP	47	336	2
XTP	47	336	5
TAP	48	48	0
TAP	48	48	7
TAP	48	96	0
TAP	48	96	7
TAP	48	192	1
TAP	48	192	3
TAP	48	288	4
TAP	48	288	6
HLD	49	0	1	96
STR	49	0	3
SI_	49	0	3	96	48	7
TAP	49	144	0
BRK	49	240	1
BRK	49	240	5
STR	50	0	4
SI_	50	0	4	96	48	0
HLD	50	0	6	96
TAP	50	144	7
BRK	50	240	2
BRK	50	240	6
TAP	50	336	1
TAP	51	0	1
TAP	51	48	0
TAP	51	48	2
TAP	51	144	5
TAP	51	192	4
TAP	51	192	6
TAP	51	288	3
TAP	51	336	3
TAP	52	0	4
TAP	52	48	4
TAP	52	96	2
TAP	52	144	2
TAP	52	240	0
TAP	52	240	7
XTP	52	336	1
XTP	52	336	6
BST	53	0	1
SCR	53	0	1	96	864	7
BST	53	0	6
SCL	53	0	6	96	864	0
HLD	56	0	3	192
HLD	56	0	4	192
TAP	57	0	2
TAP	57	0	4
TAP	57	96	3
TAP	57	96	5
TAP	57	192	2
TAP	57	240	2
HLD	57	336	1	192
HLD	57	336	3	192
TAP	58	240	3
STR	58	240	4
SUL	58	240	4	96	240	3
TAP	58	336	2
TAP	59	240	0
STR	59	288	0
SXL	59	288	0	96	240	0
TAP	61	0	3
TAP	61	0	5
TAP	61	96	2
TAP	61	96	4
TAP	61	192	5
TAP	61	240	5
TAP	61	336	3
HLD	61	336	6	96
HLD	62	48	5	96
HLD	62	144	4	96
HLD	62	240	3	96
HLD	62	336	2	96
HLD	63	48	1	96
HLD	63	144	2	96
HLD	63	240	3	96
HLD	63	336	4	96
HLD	64	48	5	96
HLD	64	144	6	96
TAP	64	240	7
TAP	64	288	6
TAP	64	288	7
TAP	65	0	3
TAP	65	0	5
TAP	65	96	2
TAP	65	96	4
TAP	65	192	5
TAP	65	240	5
HLD	65	336	3	192
HLD	65	336	6	192
TAP	66	240	4
TAP	66	240	5
HLD	66	336	2	192
HLD	66	336	4	192
TAP	67	240	3
TAP	67	240	4
TAP	67	336	4
TAP	67	336	5
TAP	68	48	3
TAP	68	144	2
TAP	68	240	0
TAP	68	240	7
BRK	68	288	0
BRK	68	288	7
TAP	69	0	2
TAP	69	96	1
TAP	69	96	3
TAP	69	192	5
TAP	69	288	4
TAP	69	288	6
TAP	70	0	1
TAP	70	96	0
TAP	70	96	2
TAP	70	192	6
TAP	70	288	5
TAP	70	288	7
HLD	71	0	1	96
HLD	71	96	3	96
HLD	71	192	4	96
TAP	71	288	6
TAP	71	336	6
TAP	72	48	0
TAP	72	48	5
TAP	72	144	3
TAP	72	144	4
BRK	72	240	2
BRK	72	240	7
TAP	73	0	3
TAP	73	96	3
HLD	73	192	3	144
TAP	73	336	4
TAP	74	48	4
TAP	74	144	4
TAP	74	240	3
TAP	74	288	3
TTP	75	0	6	E	0	M1
TTP	75	96	5	E	0	M1
TTP	75	96	5	B	0	M1
TTP	75	192	2	E	0	M1
TTP	75	288	2	B	0	M1
TTP	75	288	3	E	0	M1
TTP	76	0	4	E	0	M1
TTP	76	96	3	B	0	M1
TTP	76	96	4	B	0	M1
THO	76	192	0	1728	C	0	M1
TTP	76	192	1	B	0	M1
TTP	76	192	6	B	0	M1
STR	83	0	2
SCL	83	0	2	96	288	7
STR	84	0	6
SCL	84	0	6	96	288	3
STR	85	0	2
SUR	85	0	2	96	288	7
STR	86	0	6
SUR	86	0	6	96	288	3
STR	87	0	2
SLR	87	0	2	96	288	0
STR	88	0	7
SCR	88	0	7	96	576	6
STR	90	0	0
SXR	90	0	0	96	480	4
TAP	90	96	7
TAP	91	288	5
STR	92	0	4
SXR	92	0	4	96	672	7
TAP	92	96	3
TTP	96	0	5	E	0	M1
TTP	96	96	3	E	0	M1
TTP	96	192	4	E	0	M1
TTP	96	288	2	B	0	M1
TTP	97	0	4	B	0	M1
TTP	97	96	3	B	0	M1
TTP	97	192	5	B	0	M1
TAP	97	288	1
TAP	97	288	3
TAP	97	336	1
HLD	97	336	3	96
TAP	98	48	2
TAP	98	96	1
TAP	98	96	3
XTP	98	192	0
XTP	98	192	7
TAP	98	288	4
TAP	98	288	6
HLD	98	336	4	96
TAP	98	336	6
TAP	99	48	5
TAP	99	96	4
TAP	99	96	6
XTP	99	192	0
XTP	99	192	7
TAP	99	288	1
TAP	99	288	3
TAP	99	336	1
HLD	99	336	3	96
TAP	100	48	2
TAP	100	96	1
TAP	100	96	4
XTP	100	192	0
XTP	100	192	7
TAP	100	288	4
TAP	100	288	6
HLD	100	336	4	96
TAP	100	336	6
TAP	101	48	5
TAP	101	96	3
TAP	101	96	6
XTP	101	192	0
XTP	101	192	7
TAP	101	288	1
TAP	101	288	4
TAP	101	336	1
TAP	101	336	4
TAP	102	48	2
TAP	102	48	3
TAP	102	96	2
TAP	102	96	3
TAP	102	192	4
TAP	102	192	5
TAP	102	288	0
TAP	102	288	7
XTP	102	336	0
XTP	102	336	7
XTP	103	48	3
XTP	103	48	4
BRK	103	144	1
BRK	103	144	6
XTP	104	0	3
XTP	104	0	7
XTP	104	48	4
XTP	104	48	6
XTP	104	96	3
XTP	104	96	7
XTP	104	144	4
XTP	104	144	6
XTP	104	192	3
XTP	104	192	7
TAP	104	288	0
TAP	104	288	1
TAP	104	336	0
TAP	104	336	1
TAP	105	48	6
TAP	105	48	7
STR	105	96	6
SI_	105	96	6	96	48	2
TAP	105	96	7
BRK	105	192	0
TAP	105	288	1
XHO	105	336	1	96
TAP	106	48	3
XHO	106	144	6	96
TAP	106	240	4
BRK	106	336	0
BRK	106	336	7
XTP	107	48	1
XTP	107	48	6
XTP	107	96	1
XTP	107	96	6
TAP	107	192	4
TAP	107	288	3
STR	108	0	2
SXL	108	0	2	96	288	5
HLD	108	0	6	192
TTP	109	0	0	E	0	M1
TTP	109	96	7	E	0	M1
TTP	109	192	0	C	0	M1
TTP	109	192	6	E	0	M1
HLD	110	0	1	192
STR	110	0	5
SXR	110	0	5	96	288	2
TTP	111	0	0	E	0	M1
TTP	111	96	1	E	0	M1
TTP	111	192	0	C	1	M1
TTP	111	192	2	E	0	M1
XTP	112	0	0
XTP	112	0	4
XTP	112	48	1
XTP	112	48	3
XTP	112	96	0
XTP	112	96	4
XTP	112	144	1
XTP	112	144	3
XTP	112	192	0
XTP	112	192	4
TAP	112	288	6
TAP	112	288	7
TAP	112	336	6
TAP	112	336	7
TAP	113	48	0
TAP	113	48	1
TAP	113	96	0
STR	113	96	1
SI_	113	96	1	96	48	5
BRK	113	192	7
TAP	113	288	6
XHO	113	336	6	96
TAP	114	48	4
XHO	114	144	1	96
TAP	114	240	3
TAP	114	336	1
TAP	114	336	6
TAP	115	48	0
TAP	115	48	7
TAP	115	96	0
TAP	115	96	7
TAP	115	192	4
TAP	115	192	6
TAP	115	288	1
TAP	115	288	3
STR	116	0	0
SI_	116	0	0	96	48	4
HLD	116	0	4	96
TAP	116	144	5
BRK	116	240	2
BRK	116	240	6
HLD	117	0	3	96
STR	117	0	7
SI_	117	0	7	96	48	3
TAP	117	144	2
BRK	117	240	1
BRK	117	240	5
TAP	117	336	6
TAP	118	0	6
TAP	118	48	5
TAP	118	48	7
TAP	118	144	2
TAP	118	192	1
TAP	118	192	3
TAP	118	288	4
TAP	118	336	4
TAP	119	0	3
TAP	119	48	3
TAP	119	96	5
TAP	119	144	5
TAP	119	240	0
TAP	119	240	7
XTP	119	336	1
XTP	119	336	6
BRK	120	0	1
BRK	120	0	6
XTP	120	192	1
XTP	120	192	4
TAP	120	240	2
TAP	120	288	3
XTP	120	336	1
XTP	120	336	4
TAP	121	0	2
TAP	121	48	3
XTP	121	96	1
XTP	121	96	4
TAP	121	144	2
TAP	121	192	3
XTP	121	240	1
XTP	121	240	4
TAP	121	288	2
TAP	121	336	2
XTP	122	0	3
XTP	122	0	6
TAP	122	48	5
TAP	122	96	4
XTP	122	144	3
XTP	122	144	6
TAP	122	192	5
TAP	122	240	4
XTP	122	288	3
XTP	122	288	6
TAP	122	336	5
TAP	123	0	4
XTP	123	48	3
XTP	123	48	6
TAP	123	96	5
TAP	123	144	4
XTP	123	192	3
XTP	123	192	6
XTP	123	288	2
XTP	123	288	7
TAP	123	336	1
TAP	123	336	6
TAP	124	0	0
TAP	124	0	5
TAP	124	96	0
TAP	124	96	7
TAP	124	144	0
TAP	124	144	7
BRK	124	192	1
BRK	124	192	6
TAP	124	288	2
TAP	124	288	3
TAP	124	336	1
TAP	124	336	4
TTP	125	48	0	E	0	M1
TTP	125	48	6	B	0	M1
TTP	125	48	6	E	0	M1
TTP	125	48	7	B	0	M1
XTP	125	192	3
XTP	125	192	4
TAP	125	288	4
TAP	125	288	5
TAP	125	336	3
TAP	125	336	6
TTP	126	48	0	B	0	M1
TTP	126	48	0	E	0	M1
TTP	126	48	1	B	0	M1
TTP	126	48	2	E	0	M1
XTP	126	192	3
XTP	126	192	6
TAP	126	240	3
TAP	126	288	3
XTP	126	336	2
XTP	126	336	5
TAP	127	0	5
TAP	127	48	5
XTP	127	96	0
XTP	127	96	4
TAP	127	144	0
TAP	127	192	0
XTP	127	240	1
XTP	127	240	7
TAP	127	288	7
TAP	127	336	7
XTP	128	0	0
XTP	128	0	6
XTP	128	48	0
XTP	128	48	6
XST	128	96	0
SI_	128	96	0	96	48	4
XST	128	96	6
SI_	128	96	6	96	48	2

T_REC_TAP	352
T_REC_BRK	28
T_REC_XTP	126
T_REC_HLD	63
T_REC_XHO	4
T_REC_STR	33
T_REC_BST	2
T_REC_XST	2
T_REC_TTP	56
T_REC_THO	1
T_REC_SLD	37
T_REC_ALL	704
T_NUM_TAP	569
T_NUM_BRK	30
T_NUM_HLD	68
T_NUM_SLD	37
T_NUM_ALL	704
T_JUDGE_TAP	599
T_JUDGE_HLD	191
T_JUDGE_SLD	37
T_JUDGE_ALL	827
TTM_EACHPAIRS	201
TTM_SCR_TAP	284500
TTM_SCR_BRK	78000
TTM_SCR_HLD	68000
TTM_SCR_SLD	55500
TTM_SCR_ALL	486000
TTM_SCR_S	468550
TTM_SCR_SS	483000
TTM_RAT_ACV	10062

