VERSION	0.00.00	1.03.00
FES_MODE	0
BPM_DEF	220.000	220.000	220.000	220.000
MET_DEF	4	4
RESOLUTION	384
CLK_DEF	384
COMPATIBLE_CODE	MA2

BPM	0	0	220.000
MET	0	0	4	4

XHO	3	0	5	192
TAP	3	192	4
TAP	4	0	5
TAP	4	96	5
XTP	4	192	5
TAP	5	0	3
TAP	5	96	3
XTP	5	192	3
TAP	6	0	4
TAP	6	96	4
XTP	6	192	3
XTP	6	192	4
XHO	7	0	2	192
TAP	7	192	3
TAP	8	0	2
TAP	8	96	2
XTP	8	192	2
TAP	9	0	4
TAP	9	96	4
XTP	9	192	4
TAP	10	0	3
TAP	10	96	3
BRK	10	192	3
BRK	10	192	4
XHO	11	0	2	192
XTP	11	192	3
XHO	12	0	3	192
XTP	12	192	4
XHO	13	0	4	192
XTP	13	192	5
XTP	14	0	4
XTP	14	0	6
TAP	15	0	5
TAP	15	96	5
TAP	15	192	4
TAP	15	288	4
TAP	16	0	5
TAP	16	96	5
XTP	16	192	5
TAP	17	0	3
TAP	17	96	3
XTP	17	192	3
XTP	17	192	4
TAP	18	0	2
TAP	18	96	2
XTP	18	192	2
XTP	18	192	3
TAP	19	0	4
TAP	19	96	4
TAP	19	192	3
TAP	19	288	3
XHO	20	0	3	192
TAP	21	0	5
TAP	21	96	5
XTP	21	192	4
XTP	21	192	5
TAP	22	0	2
TAP	22	96	2
XTP	22	192	2
XTP	22	192	3
XHO	23	0	5	192
XTP	23	192	4
XHO	24	0	4	192
XTP	24	192	3
XHO	25	0	3	192
XTP	25	192	2
BRK	26	0	1
BRK	26	0	4
STR	27	0	0
SI_	27	0	0	96	336	4
STR	27	0	1
SI_	27	0	1	96	336	3
XST	28	336	3
SI_	28	336	3	96	384	0
XST	28	336	4
SI_	28	336	4	96	384	7
XST	31	0	0
SCR	31	0	0	96	336	3
XTP	32	192	4
XST	33	0	4
SCR	33	0	4	96	336	7
XTP	34	192	0
XST	35	0	0
SUR	35	0	0	96	336	7
BRK	36	192	1
BRK	36	192	6
TAP	37	0	1
TAP	37	96	1
TAP	37	192	0
TAP	37	192	1
TAP	38	0	6
TAP	38	96	6
TAP	38	192	6
TAP	38	192	7
TAP	39	0	0
TAP	39	96	0
TAP	39	192	1
TAP	39	288	1
TAP	40	0	2
TAP	40	96	2
XTP	40	192	3
XTP	40	192	4
TAP	41	0	5
TAP	41	96	5
XTP	41	192	4
XTP	41	192	6
TAP	42	0	2
TAP	42	96	2
XTP	42	192	1
XTP	42	192	3
TAP	43	0	5
TAP	43	96	5
TAP	43	192	6
TAP	43	288	6
XTP	44	0	7
XTP	44	96	7
BRK	44	192	1
BRK	44	192	6
TAP	45	0	6
TAP	45	96	6
TAP	45	192	6
TAP	45	192	7
TAP	46	0	1
TAP	46	96	1
TAP	46	192	0
TAP	46	192	1
TAP	47	0	7
TAP	47	96	7
TAP	47	192	6
TAP	47	288	6
TAP	48	0	5
TAP	48	96	5
XTP	48	192	3
XTP	48	192	4
TAP	49	0	2
TAP	49	96	2
XTP	49	192	1
XTP	49	192	3
TAP	50	0	5
TAP	50	96	5
XTP	50	192	4
XTP	50	192	6
TAP	51	0	3
TAP	51	96	3
TAP	51	192	2
TAP	51	288	2
XTP	52	0	1
XTP	52	96	1
XTP	52	192	0
XTP	52	192	7
XTP	52	288	0
XTP	52	288	7
XHO	53	0	1	768
XHO	53	0	6	768
HLD	57	0	5	384
HLD	58	0	4	384
HLD	59	0	3	384
TAP	60	0	2
XTP	60	192	2
XTP	60	192	3
HLD	61	0	1	384
HLD	62	0	0	384
HLD	63	0	7	384
TAP	64	0	6
TAP	64	192	6
XST	65	0	5
SCL	65	0	5	96	336	2
XST	67	0	2
SCR	67	0	2	96	336	5
TAP	69	0	4
TAP	69	192	3
TAP	70	0	2
TAP	70	192	1
TAP	71	0	0
TAP	71	192	7
XTP	72	0	1
XTP	72	0	6
STR	73	0	0
SI_	73	0	0	96	336	3
XTP	74	192	4
STR	75	0	4
SI_	75	0	4	96	336	7
XST	76	192	0
SCR	76	192	0	96	1056	7
TTP	83	0	6	B	0	L1
TTP	84	0	4	B	0	L1
TTP	85	0	0	C	0	L1
TTP	86	0	2	B	0	L1
TTP	87	0	1	B	0	L1
TTP	88	0	0	C	0	L1
TTP	90	0	1	B	0	L1
TTP	91	0	3	B	0	L1
TTP	92	0	0	C	0	L1
TTP	93	0	5	B	0	L1
TTP	94	0	0	C	0	L1
HLD	96	0	3	384
HLD	96	0	4	384
XTP	97	336	2
XTP	97	336	3
XHO	98	48	2	144
XHO	98	48	3	144
XTP	98	336	3
XTP	98	336	4
XHO	99	48	3	144
XHO	99	48	4	144
XTP	99	336	4
XTP	99	336	5
XHO	100	48	4	144
XHO	100	48	5	144
XTP	100	336	3
XTP	100	336	4
XHO	101	48	3	144
XHO	101	48	4	144
XTP	101	336	2
XTP	101	336	5
XHO	102	48	2	144
XHO	102	48	5	144
XTP	102	336	3
XTP	102	336	4
XTP	103	48	2
XTP	103	48	5
BRK	103	144	1
BRK	103	144	6
XTP	104	0	1
XTP	104	96	1
XTP	104	192	0
XTP	104	192	1
TAP	105	0	6
TAP	105	96	6
TAP	105	192	6
TAP	105	192	7
XST	106	0	0
SCR	106	0	0	96	336	3
XTP	107	192	4
HLD	108	0	5	192
XTP	108	192	4
HLD	109	0	2	192
XTP	109	192	3
HLD	110	0	1	192
XTP	110	192	0
XTP	111	0	0
XTP	111	0	7
BRK	111	192	1
BRK	111	192	6
TAP	112	0	1
TAP	112	96	1
TAP	112	192	0
TAP	112	192	1
TAP	113	0	6
TAP	113	96	6
TAP	113	192	6
TAP	113	192	7
TAP	114	0	1
TAP	114	96	1
TAP	114	192	2
TAP	114	288	2
TAP	115	0	3
TAP	115	96	3
XTP	115	192	2
XTP	115	192	4
TAP	116	0	5
TAP	116	96	5
TAP	116	192	4
TAP	116	192	5
TAP	117	0	6
TAP	117	96	6
TAP	117	192	6
TAP	117	192	7
TAP	118	0	1
TAP	118	96	1
TAP	118	192	0
TAP	118	192	1
XTP	119	0	7
XTP	119	96	7
XTP	119	192	0
XTP	119	192	7
XTP	119	288	0
XTP	119	288	7
BRK	120	0	1
BRK	120	0	6
TAP	120	192	7
TAP	120	288	7
TAP	121	0	6
TAP	121	96	6
TAP	121	192	5
TAP	121	288	5
TAP	122	0	4
TAP	122	96	4
TAP	122	192	3
TAP	122	288	3
TAP	123	0	2
TAP	123	96	2
TAP	123	192	1
TAP	123	288	1
XTP	124	0	0
XTP	124	96	0
TAP	124	192	1
TAP	124	288	1
XTP	125	0	2
XTP	125	96	2
TAP	125	192	3
TAP	125	288	3
XTP	126	0	4
XTP	126	96	4
TAP	126	192	5
TAP	126	288	5
TAP	127	0	6
TAP	127	96	6
TAP	127	192	7
TAP	127	288	7
XTP	128	0	0
XTP	128	0	7
XTP	128	96	0
XTP	128	96	7
BRK	128	192	1
BRK	128	192	6

T_REC_TAP	139
T_REC_BRK	16
T_REC_XTP	92
T_REC_HLD	11
T_REC_XHO	21
T_REC_STR	4
T_REC_BST	0
T_REC_XST	9
T_REC_TTP	11
T_REC_THO	0
T_REC_SLD	13
T_REC_ALL	316
T_NUM_TAP	255
T_NUM_BRK	16
T_NUM_HLD	32
T_NUM_SLD	13
T_NUM_ALL	316
T_JUDGE_TAP	271
T_JUDGE_HLD	174
T_JUDGE_SLD	13
T_JUDGE_ALL	458
TTM_EACHPAIRS	57
TTM_SCR_TAP	127500
TTM_SCR_BRK	41600
TTM_SCR_HLD	32000
TTM_SCR_SLD	19500
TTM_SCR_ALL	220600
TTM_SCR_S	212450
TTM_SCR_SS	219000
TTM_RAT_ACV	10073

