VERSION	0.00.00	1.03.00
FES_MODE	0
BPM_DEF	220.000	220.000	220.000	220.000
MET_DEF	4	4
RESOLUTION	384
CLK_DEF	384
COMPATIBLE_CODE	MA2

BPM	0	0	220.000
MET	0	0	4	4

TAP	3	0	0
TAP	4	0	0
TAP	5	0	7
TAP	6	0	7
HLD	7	0	0	384
HLD	9	0	7	384
XTP	11	0	0
XTP	11	192	0
XTP	12	0	0
XTP	13	0	7
XTP	13	192	7
XTP	14	0	7
TAP	15	0	0
TAP	16	0	0
TAP	17	0	1
TAP	18	0	1
TAP	19	0	2
BRK	20	0	2
TAP	21	0	3
TAP	22	0	3
HLD	23	0	4	384
HLD	25	0	3	384
XTP	27	0	3
XTP	27	0	4
XTP	29	0	4
TAP	29	192	4
TAP	30	0	4
TAP	31	0	3
TAP	31	192	3
TAP	32	0	3
XTP	33	0	3
XTP	33	0	4
XTP	34	0	3
XTP	34	0	4
XST	35	0	3
SI_	35	0	3	96	288	0
XST	35	0	4
SI_	35	0	4	96	288	7
XHO	37	0	1	384
TAP	39	0	0
TAP	39	192	0
TAP	40	0	0
TAP	41	0	7
TAP	41	192	7
TAP	42	0	7
TAP	43	0	6
TAP	43	192	6
XTP	44	0	6
XTP	44	0	7
XHO	45	0	5	384
TAP	47	0	4
TAP	47	192	4
TAP	48	0	4
TAP	49	0	3
TAP	49	192	3
TAP	50	0	3
TAP	51	0	2
TAP	51	192	2
TAP	52	0	2
HLD	53	0	2	384
HLD	53	0	3	384
HLD	55	0	4	384
HLD	55	0	5	384
TTP	57	0	3	B	0	L1
TTP	58	0	2	B	0	L1
TTP	59	0	1	B	0	L1
TTP	60	0	0	B	0	L1
TTP	61	0	7	B	0	L1
TTP	62	0	6	B	0	L1
TTP	63	0	5	B	0	L1
TTP	64	0	4	B	0	L1
HLD	65	0	3	384
HLD	67	0	4	384
TTP	69	0	3	E	0	L1
TTP	69	0	5	E	0	L1
TTP	70	0	2	B	0	L1
TTP	70	0	5	B	0	L1
TTP	71	0	1	B	0	L1
TTP	71	0	6	B	0	L1
TTP	72	0	1	E	0	L1
TTP	72	0	7	E	0	L1
STR	73	0	0
SI_	73	0	0	96	288	3
STR	73	0	7
SI_	73	0	7	96	288	4
XTP	75	0	2
XTP	75	0	5
XTP	76	0	3
XTP	76	0	4
XHO	76	192	3	1344
XHO	76	192	4	1344
TAP	83	0	2
TAP	84	0	3
TAP	85	0	4
TAP	86	0	5
TAP	87	0	6
HLD	88	0	0	384
HLD	88	0	7	384
STR	90	0	0
SI_	90	0	0	96	288	4
STR	92	0	7
SI_	92	0	7	96	288	3
XHO	96	0	2	384
TTP	98	0	3	B	0	L1
TTP	98	0	4	B	0	L1
TTP	99	0	2	B	0	L1
TTP	99	0	5	B	0	L1
TTP	100	0	1	B	0	L1
TTP	100	0	6	B	0	L1
TTP	101	0	1	E	0	L1
TTP	101	0	7	E	0	L1
THO	102	0	0	576	C	1	L1
XTP	105	0	0
XTP	105	0	7
TAP	106	0	6
TAP	106	192	6
XTP	107	0	6
XTP	107	0	7
TAP	108	0	5
TAP	108	192	5
TAP	109	0	4
BRK	109	192	4
TAP	110	0	3
TAP	110	192	3
TAP	111	0	2
BRK	111	192	2
XHO	112	0	1	384
TAP	114	0	0
TAP	114	192	0
TAP	115	0	0
TAP	115	0	7
XTP	116	0	1
XTP	116	0	7
XTP	117	0	0
XTP	117	0	6
TAP	118	0	5
TAP	118	192	5
TAP	119	0	4
TAP	119	192	4
BRK	120	0	3
XTP	120	192	3
XTP	121	0	3
XTP	121	192	2
XTP	121	192	4
XTP	122	192	4
XTP	123	0	4
XTP	123	192	3
XTP	123	192	5
TTP	124	192	3	B	0	L1
TTP	124	192	4	B	0	L1
TTP	125	192	2	B	0	L1
TTP	125	192	5	B	0	L1
THO	126	192	0	768	C	1	L1

T_REC_TAP	54
T_REC_BRK	4
T_REC_XTP	35
T_REC_HLD	12
T_REC_XHO	6
T_REC_STR	4
T_REC_BST	0
T_REC_XST	2
T_REC_TTP	28
T_REC_THO	2
T_REC_SLD	6
T_REC_ALL	153
T_NUM_TAP	123
T_NUM_BRK	4
T_NUM_HLD	20
T_NUM_SLD	6
T_NUM_ALL	153
T_JUDGE_TAP	127
T_JUDGE_HLD	212
T_JUDGE_SLD	6
T_JUDGE_ALL	345
TTM_EACHPAIRS	19
TTM_SCR_TAP	61500
TTM_SCR_BRK	10400
TTM_SCR_HLD	20000
TTM_SCR_SLD	9000
TTM_SCR_ALL	100900
TTM_SCR_S	97500
TTM_SCR_SS	100500
TTM_RAT_ACV	10039

