VERSION	0.00.00	1.03.00
FES_MODE	0
BPM_DEF	200.000	200.000	200.000	200.000
MET_DEF	4	4
RESOLUTION	384
CLK_DEF	384
COMPATIBLE_CODE	MA2

BPM	0	0	200.000
MET	0	0	4	4

TAP	3	0	3
TAP	3	48	3
TAP	3	96	4
HLD	3	144	3	96
TAP	3	240	4
TAP	3	288	3
HLD	3	336	4	96
TAP	4	48	3
TAP	4	96	4
HLD	4	144	3	96
TAP	4	240	4
TAP	4	288	3
TAP	4	288	4
TAP	5	0	4
TAP	5	48	4
TAP	5	96	3
HLD	5	144	4	96
TAP	5	240	3
TAP	5	288	4
TAP	5	336	3
TAP	6	0	3
TAP	6	0	4
TAP	6	96	2
TAP	6	192	1
TAP	6	192	6
TTP	6	288	0	C	0	M1
TTP	6	288	3	B	0	M1
TTP	6	288	4	B	0	M1
TAP	7	0	1
STR	7	48	1
SI_	7	48	1	96	48	4
TAP	7	96	5
XTP	7	144	1
STR	7	240	6
SI_	7	240	6	96	48	3
TAP	7	288	2
XTP	7	336	6
STR	8	48	0
SI_	8	48	0	96	48	4
TAP	8	96	5
XTP	8	144	0
TAP	8	240	7
TAP	8	288	0
TAP	8	288	7
TAP	9	0	6
STR	9	48	6
SI_	9	48	6	96	48	3
TAP	9	96	2
XTP	9	144	6
STR	9	240	1
SI_	9	240	1	96	48	4
TAP	9	288	5
XTP	9	336	1
STR	10	48	7
SI_	10	48	7	96	48	3
TAP	10	96	2
XTP	10	144	7
TAP	10	240	0
TAP	10	288	0
TAP	10	288	7
TAP	11	0	1
STR	11	48	1
SI_	11	48	1	96	48	4
TAP	11	96	5
XTP	11	144	1
STR	11	240	6
SI_	11	240	6	96	48	3
TAP	11	288	2
XTP	11	336	6
STR	12	48	0
SI_	12	48	0	96	48	4
TAP	12	96	5
XTP	12	144	0
TAP	12	240	7
TAP	12	288	0
TAP	12	288	7
TAP	13	0	6
STR	13	48	6
SI_	13	48	6	96	48	3
TAP	13	96	2
XTP	13	144	6
STR	13	240	1
SI_	13	240	1	96	48	4
TAP	13	288	5
XTP	13	336	1
TAP	14	48	7
TAP	14	96	0
TAP	14	96	7
TAP	14	192	1
TAP	14	192	6
TAP	14	288	3
TAP	14	288	4
HLD	15	0	5	1344
TAP	15	96	4
TAP	15	192	4
TAP	15	288	4
TTP	16	0	3	E	0	M1
TTP	16	96	5	B	0	M1
TTP	16	192	1	B	0	M1
TTP	16	288	7	E	0	M1
TAP	17	0	0
TAP	17	96	0
TTP	17	192	0	E	0	M1
TTP	17	288	6	B	0	M1
TTP	18	0	2	B	0	M1
TTP	18	96	5	E	0	M1
TAP	18	192	3
TAP	18	240	3
TAP	18	288	4
HLD	19	0	2	1056
TAP	19	96	3
TAP	19	192	3
TAP	19	288	3
TTP	20	0	5	E	0	M1
TTP	20	96	2	B	0	M1
TTP	20	192	6	B	0	M1
TTP	20	288	1	E	0	M1
TAP	21	0	7
TAP	21	96	7
TAP	21	192	7
STR	21	288	7
SCL	21	288	7	96	96	4
TAP	22	0	3
TAP	22	96	3
TAP	22	192	2
TAP	22	192	5
TAP	22	288	7
TAP	22	336	7
STR	23	0	0
SCR	23	0	0	96	96	3
TTP	23	96	5	B	0	M1
TTP	23	96	6	B	0	M1
STR	23	192	7
SCL	23	192	7	96	96	4
TTP	23	288	1	B	0	M1
TTP	23	288	2	B	0	M1
STR	24	0	0
SCR	24	0	0	96	96	3
TTP	24	96	5	B	0	M1
TTP	24	96	6	B	0	M1
STR	24	192	7
SCL	24	192	7	96	96	4
TTP	24	288	1	B	0	M1
TTP	24	288	2	B	0	M1
STR	25	0	0
SCR	25	0	0	96	96	3
TTP	25	96	5	B	0	M1
TTP	25	96	6	B	0	M1
TAP	25	192	7
STR	25	288	7
SI_	25	288	7	96	48	3
TAP	26	0	0
HLD	26	48	0	96
TAP	26	144	7
TAP	26	240	2
TAP	26	240	5
TAP	26	288	2
TAP	26	288	5
STR	27	0	7
SCL	27	0	7	96	96	4
TTP	27	96	0	C	0	M1
TTP	27	96	2	B	0	M1
STR	27	192	0
SCR	27	192	0	96	96	3
TTP	27	288	0	C	0	M1
TTP	27	288	5	B	0	M1
STR	28	0	7
SCL	28	0	7	96	96	4
TTP	28	96	0	C	0	M1
TTP	28	96	2	B	0	M1
TAP	28	192	0
STR	28	288	1
SI_	28	288	1	96	48	5
TAP	28	288	6
STR	29	0	7
SI_	29	0	7	96	48	4
STR	29	96	3
SI_	29	96	3	96	48	0
TAP	29	192	7
TAP	29	288	2
TAP	29	288	5
XTP	30	0	3
XTP	30	0	4
XTP	30	48	3
XTP	30	48	4
XTP	30	96	3
XTP	30	96	4
XTP	30	144	3
XTP	30	144	4
XTP	30	288	1
XTP	30	288	6
STR	31	0	1
SI_	31	0	1	96	48	4
TAP	31	0	5
XTP	31	96	1
TAP	31	96	7
TAP	31	192	2
STR	31	192	6
SI_	31	192	6	96	48	3
TAP	31	288	0
XTP	31	288	6
STR	32	0	1
SI_	32	0	1	96	48	4
TAP	32	0	5
XTP	32	96	1
TAP	32	96	7
TAP	32	144	7
TAP	32	192	0
STR	32	288	0
SCR	32	288	0	96	96	4
TAP	32	288	7
STR	33	0	4
SCR	33	0	4	96	96	0
STR	33	96	0
SCR	33	96	0	96	96	4
STR	33	192	4
SCR	33	192	4	96	96	0
TAP	33	288	0
TTP	34	0	0	C	1	M1
TAP	34	96	0
TAP	34	144	0
TAP	34	240	4
TAP	34	288	3
TAP	34	288	5
TAP	35	0	2
STR	35	0	6
SI_	35	0	6	96	48	3
TAP	35	96	0
XTP	35	96	6
STR	35	192	1
SI_	35	192	1	96	48	4
TAP	35	192	5
XTP	35	288	1
TAP	35	288	7
TAP	36	0	2
STR	36	0	6
SI_	36	0	6	96	48	3
TAP	36	96	0
XTP	36	96	6
TAP	36	192	7
TAP	36	240	7
STR	36	288	0
SI_	36	288	0	96	48	3
STR	37	0	5
SI_	37	0	5	96	48	0
STR	37	96	1
SI_	37	96	1	96	48	4
TAP	37	192	7
STR	37	240	7
SCL	37	240	7	96	96	2
TTP	37	336	0	C	0	M1
XTP	38	48	0
XTP	38	96	0
TTP	38	192	0	C	1	M1
TTP	38	192	3	E	0	M1
TTP	38	192	5	E	0	M1
XTP	38	288	0
XTP	38	288	7
TAP	39	0	2
STR	39	0	6
SI_	39	0	6	96	48	3
XTP	39	96	6
TAP	39	96	7
STR	39	192	1
SI_	39	192	1	96	48	4
TAP	39	192	5
TAP	39	288	0
XTP	39	288	1
TAP	40	0	2
STR	40	0	6
SI_	40	0	6	96	48	3
TAP	40	96	0
XTP	40	96	6
TAP	40	144	0
TAP	40	192	7
TAP	40	288	0
STR	40	288	7
SCL	40	288	7	96	96	3
STR	41	0	3
SCL	41	0	3	96	96	7
STR	41	96	7
SCL	41	96	7	96	96	3
STR	41	192	3
SCL	41	192	3	96	96	7
TAP	41	288	7
TTP	42	0	0	C	1	M1
TAP	42	96	7
TAP	42	144	7
TAP	42	240	3
TAP	42	288	2
TAP	42	288	4
STR	43	0	1
SI_	43	0	1	96	48	4
TAP	43	0	5
TAP	43	96	0
XTP	43	96	1
TAP	43	192	2
STR	43	192	6
SI_	43	192	6	96	48	3
XTP	43	288	6
TAP	43	288	7
STR	44	0	1
SI_	44	0	1	96	48	4
TAP	44	0	5
XTP	44	96	1
TAP	44	96	7
TAP	44	192	0
TAP	44	240	0
STR	44	288	7
SI_	44	288	7	96	48	4
STR	45	0	2
SI_	45	0	2	96	48	7
STR	45	96	6
SI_	45	96	6	96	48	3
TAP	45	192	0
STR	45	240	0
SCR	45	240	0	96	96	6
TTP	45	336	0	C	1	M1
TAP	46	48	7
STR	46	96	7
SI_	46	96	7	96	48	4
STR	46	192	3
SI_	46	192	3	96	48	0
STR	47	0	4
SCR	47	0	4	96	48	7
STR	47	96	0
SI_	47	96	0	96	48	3
TAP	47	192	6
TAP	47	240	6
TAP	47	288	4
TAP	47	336	5
TAP	48	0	3
TAP	48	0	5
TTP	48	96	0	E	0	M1
TTP	48	96	1	E	0	M1
TTP	48	96	7	E	0	M1
TTP	48	192	3	E	0	M1
TTP	48	192	4	E	0	M1
TTP	48	192	5	E	0	M1
TAP	48	288	2
TAP	48	288	5
STR	49	0	3
SCL	49	0	3	96	48	0
STR	49	96	7
SI_	49	96	7	96	48	4
TAP	49	192	1
TAP	49	240	1
STR	49	288	3
SCL	49	288	3	96	192	4
TAP	50	0	4
BRK	50	192	7
TAP	50	288	1
TAP	50	288	6
STR	51	0	3
SCL	51	0	3	96	48	0
STR	51	96	7
SI_	51	96	7	96	48	4
TAP	51	192	1
TAP	51	240	1
TAP	51	288	3
TAP	51	336	2
TAP	52	0	2
TAP	52	0	4
TTP	52	96	0	E	0	M1
TTP	52	96	1	E	0	M1
TTP	52	96	7	E	0	M1
TTP	52	192	3	E	0	M1
TTP	52	192	4	E	0	M1
TTP	52	192	5	E	0	M1
TAP	52	288	2
TAP	52	288	5
STR	53	0	4
SCR	53	0	4	96	48	7
STR	53	96	0
SI_	53	96	0	96	48	3
TAP	53	192	6
TAP	53	240	6
TAP	53	288	4
TAP	54	0	3
TAP	54	0	4
TAP	54	96	0
TAP	54	96	7
BRK	54	192	1
BRK	54	192	6
HLD	55	0	1	96
TAP	55	0	7
HLD	55	96	3	96
TAP	55	192	4
TAP	55	240	4
STR	55	288	6
SCR	55	288	6	96	48	1
TAP	56	0	2
TAP	56	96	3
TAP	56	144	3
TAP	56	192	4
TAP	56	288	3
TAP	56	288	5
TAP	57	0	0
HLD	57	0	6	96
HLD	57	96	4	96
TAP	57	192	3
TAP	57	240	3
STR	57	288	1
SCL	57	288	1	96	48	6
TAP	58	0	5
TAP	58	96	4
TAP	58	192	3
TAP	58	192	6
TAP	58	240	5
TAP	58	288	2
TAP	58	288	4
TTP	59	0	3	E	0	M1
TTP	59	0	4	E	0	M1
TTP	59	96	5	E	0	M1
TTP	59	96	6	E	0	M1
TTP	59	192	0	E	0	M1
TTP	59	192	7	E	0	M1
TTP	59	288	1	E	0	M1
TTP	59	288	2	E	0	M1
TTP	60	0	4	E	0	M1
TTP	60	0	5	E	0	M1
TTP	60	96	2	E	0	M1
TTP	60	96	3	E	0	M1
TTP	60	192	0	E	0	M1
TTP	60	192	1	E	0	M1
TTP	60	288	6	E	0	M1
TTP	60	288	7	E	0	M1
TAP	61	0	4
TAP	61	48	1
TAP	61	96	3
TAP	61	144	0
TAP	61	192	6
TAP	61	240	4
TAP	61	288	5
TAP	61	336	0
STR	62	0	7
SI_	62	0	7	96	48	3
STR	62	96	1
SI_	62	96	1	96	48	5
TAP	62	192	6
BRK	62	288	7
XTP	63	0	2
XTP	63	0	3
TAP	63	72	2
TAP	63	72	3
TAP	63	144	2
TAP	63	144	3
XTP	63	192	1
STR	63	192	4
SI_	63	192	4	96	48	0
TAP	63	288	3
HLD	64	0	2	96
HLD	64	96	0	96
TAP	64	192	7
TAP	64	240	7
TAP	64	288	5
XTP	65	0	4
XTP	65	0	5
TAP	65	72	4
TAP	65	72	5
TAP	65	144	4
TAP	65	144	5
STR	65	192	3
SI_	65	192	3	96	48	7
XTP	65	192	6
TAP	65	288	4
HLD	66	0	5	96
HLD	66	96	7	96
HLD	66	192	0	96
TAP	66	288	2
TAP	67	0	2
TAP	67	24	3
TAP	67	48	2
TAP	67	72	3
STR	67	96	2
SI_	67	96	2	96	48	7
TTP	67	192	6	B	0	M1
TTP	67	192	7	E	0	M1
TTP	67	288	3	B	0	M1
TTP	67	288	4	E	0	M1
TAP	68	0	5
TAP	68	24	4
TAP	68	48	5
TAP	68	72	4
STR	68	96	5
SI_	68	96	5	96	48	0
TTP	68	192	1	E	0	M1
TTP	68	192	1	B	0	M1
TTP	68	288	4	E	0	M1
TTP	68	288	4	B	0	M1
XTP	69	0	2
XTP	69	32	2
XTP	69	64	3
XTP	69	96	1
XTP	69	128	7
XTP	69	160	0
XTP	69	192	5
XTP	69	224	5
XTP	69	256	4
XST	69	288	6
SCL	69	288	6	96	192	7
TTP	70	0	0	C	1	M1
TAP	70	288	0
TAP	70	288	7
TAP	71	0	2
STR	71	0	6
SI_	71	0	6	96	48	2
TAP	71	96	0
XTP	71	96	6
STR	71	192	3
SI_	71	192	3	96	48	0
TAP	71	192	5
XTP	71	288	3
TAP	71	288	7
TAP	72	0	2
STR	72	0	6
SI_	72	0	6	96	48	3
TAP	72	96	0
XTP	72	96	6
TAP	72	144	0
TAP	72	192	7
TAP	72	288	0
STR	72	288	7
SCL	72	288	7	96	96	3
STR	73	0	3
SCL	73	0	3	96	96	7
STR	73	96	7
SCL	73	96	7	96	96	3
STR	73	192	3
SCL	73	192	3	96	96	7
TAP	73	288	7
TTP	74	0	0	C	1	M1
TAP	74	96	7
TAP	74	144	7
TAP	74	240	3
TAP	74	288	2
TAP	74	288	4
STR	75	0	1
SI_	75	0	1	96	48	5
TAP	75	0	5
XTP	75	96	1
TAP	75	96	7
TAP	75	192	2
STR	75	192	4
SI_	75	192	4	96	48	7
TAP	75	288	0
XTP	75	288	4
STR	76	0	1
SI_	76	0	1	96	48	4
TAP	76	0	5
XTP	76	96	1
TAP	76	96	7
TAP	76	192	0
TAP	76	240	0
STR	76	288	7
SI_	76	288	7	96	48	4
STR	77	0	3
SI_	77	0	3	96	48	7
STR	77	96	6
SI_	77	96	6	96	48	3
TAP	77	192	0
STR	77	240	0
SCR	77	240	0	96	96	6
TTP	77	336	0	C	0	M1
TAP	78	48	7
TAP	78	96	7
TTP	78	192	0	C	1	M1
TTP	78	192	3	E	0	M1
TTP	78	192	5	E	0	M1
XTP	78	288	0
XTP	78	288	7
STR	79	0	1
SI_	79	0	1	96	48	5
TAP	79	0	5
XTP	79	96	1
TAP	79	96	7
TAP	79	192	2
STR	79	192	4
SI_	79	192	4	96	48	7
TAP	79	288	0
XTP	79	288	4
STR	80	0	1
SI_	80	0	1	96	48	4
TAP	80	0	5
XTP	80	96	1
TAP	80	96	7
TAP	80	144	7
TAP	80	192	0
STR	80	288	0
SCR	80	288	0	96	96	4
TAP	80	288	7
STR	81	0	4
SCR	81	0	4	96	96	0
STR	81	96	0
SCR	81	96	0	96	96	4
STR	81	192	4
SCR	81	192	4	96	96	0
TAP	81	288	0
TTP	82	0	0	C	1	M1
TAP	82	96	0
TAP	82	144	0
TAP	82	240	4
TAP	82	288	3
TAP	82	288	5
TAP	83	0	2
STR	83	0	6
SI_	83	0	6	96	48	2
TAP	83	96	0
XTP	83	96	6
STR	83	192	3
SI_	83	192	3	96	48	0
TAP	83	192	5
XTP	83	288	3
TAP	83	288	7
TAP	84	0	2
STR	84	0	6
SI_	84	0	6	96	48	3
TAP	84	96	0
XTP	84	96	6
TAP	84	192	7
TAP	84	240	7
STR	84	288	0
SI_	84	288	0	96	48	3
STR	85	0	4
SI_	85	0	4	96	48	0
STR	85	96	1
SI_	85	96	1	96	48	4
TAP	85	192	7
STR	85	240	7
SCL	85	240	7	96	96	1
TTP	85	336	0	C	1	M1
TAP	86	48	0
STR	86	96	0
SI_	86	96	0	96	48	3
STR	86	192	4
SI_	86	192	4	96	48	7
STR	87	0	3
SCL	87	0	3	96	48	0
STR	87	96	7
SI_	87	96	7	96	48	4
TAP	87	192	1
TAP	87	240	1
TAP	87	288	3
TAP	87	336	2
TAP	88	0	2
TAP	88	0	4
TTP	88	96	6	B	0	M1
TTP	88	96	7	E	0	M1
TTP	88	96	7	B	0	M1
TTP	88	192	2	B	0	M1
TTP	88	192	3	E	0	M1
TTP	88	192	3	B	0	M1
TAP	88	288	1
TAP	88	288	4
STR	89	0	5
SCR	89	0	5	96	48	0
STR	89	96	1
SI_	89	96	1	96	48	4
TAP	89	192	6
TAP	89	240	6
STR	89	288	5
SCR	89	288	5	96	192	4
TAP	90	0	3
TTP	90	192	0	C	1	M1
TAP	90	288	1
TAP	90	288	6
STR	91	0	7
SCL	91	0	7	96	48	4
STR	91	96	0
SI_	91	96	0	96	48	3
TAP	91	192	6
TAP	91	240	6
TAP	91	288	4
TAP	91	336	5
TAP	92	0	4
TAP	92	0	6
TTP	92	96	0	B	0	M1
TTP	92	96	1	E	0	M1
TTP	92	96	1	B	0	M1
TTP	92	192	4	B	0	M1
TTP	92	192	5	B	0	M1
TTP	92	192	5	E	0	M1
TAP	92	288	3
TAP	92	288	6
STR	93	0	3
SCL	93	0	3	96	48	0
STR	93	96	7
SI_	93	96	7	96	48	4
TAP	93	192	1
TAP	93	240	1
STR	93	288	3
SCL	93	288	3	96	192	4
TTP	94	0	0	C	1	M1
BRK	94	288	1
BRK	94	288	6
STR	95	0	0
SI_	95	0	0	96	48	4
STR	95	0	1
SI_	95	0	1	96	48	3
XTP	95	96	0
XTP	95	96	1
STR	95	192	6
SI_	95	192	6	96	48	4
STR	95	192	7
SI_	95	192	7	96	48	3
XTP	95	288	6
XTP	95	288	7
STR	96	0	0
SI_	96	0	0	96	48	4
STR	96	0	1
SI_	96	0	1	96	48	3
XTP	96	96	0
XTP	96	96	1
TAP	96	192	6
TAP	96	192	7
TAP	96	288	3
TAP	96	288	4
TAP	97	0	0
TAP	97	0	1
TAP	97	96	2
TAP	97	96	3
TAP	97	192	4
TAP	97	192	5
STR	97	288	1
SCL	97	288	1	96	96	6
STR	97	288	5
SUR	97	288	5	96	96	2
XTP	98	192	1
XTP	98	192	5
STR	99	0	6
SI_	99	0	6	96	48	4
STR	99	0	7
SI_	99	0	7	96	48	3
XTP	99	96	6
XTP	99	96	7
STR	99	192	0
SI_	99	192	0	96	48	4
STR	99	192	1
SI_	99	192	1	96	48	3
XTP	99	288	0
XTP	99	288	1
STR	100	0	6
SI_	100	0	6	96	48	4
STR	100	0	7
SI_	100	0	7	96	48	3
XTP	100	96	6
XTP	100	96	7
TAP	100	192	0
TAP	100	192	1
TAP	100	288	3
TAP	100	288	4
BRK	101	0	7
TAP	102	0	5
TAP	102	96	5
TAP	102	192	5
TTP	102	288	0	C	1	M1
TTP	102	288	3	B	0	M1
TTP	102	288	4	B	0	M1
TAP	103	0	6
STR	103	48	6
SI_	103	48	6	96	48	3
TAP	103	96	2
XTP	103	144	6
STR	103	240	1
SI_	103	240	1	96	48	4
TAP	103	288	5
XTP	103	336	1
STR	104	48	7
SI_	104	48	7	96	48	3
TAP	104	96	2
XTP	104	144	7
TAP	104	240	0
TAP	104	288	1
TAP	104	288	7
TAP	105	0	1
STR	105	48	1
SI_	105	48	1	96	48	4
TAP	105	96	5
XTP	105	144	1
STR	105	240	6
SI_	105	240	6	96	48	3
TAP	105	288	2
XTP	105	336	6
STR	106	48	0
SI_	106	48	0	96	48	4
TAP	106	96	5
XTP	106	144	0
TAP	106	240	7
TAP	106	288	0
TAP	106	288	6
TAP	107	0	6
STR	107	48	6
SI_	107	48	6	96	48	3
TAP	107	96	2
XTP	107	144	6
STR	107	240	1
SI_	107	240	1	96	48	4
TAP	107	288	5
XTP	107	336	1
STR	108	48	7
SI_	108	48	7	96	48	3
TAP	108	96	2
XTP	108	144	7
TAP	108	240	0
TAP	108	288	1
TAP	108	288	7
TAP	109	0	1
STR	109	48	1
SI_	109	48	1	96	48	4
TAP	109	96	5
XTP	109	144	1
STR	109	240	6
SI_	109	240	6	96	48	3
TAP	109	288	2
XTP	109	336	6
TAP	110	48	0
TAP	110	96	1
TAP	110	96	7
TTP	110	192	4	B	0	M1
TTP	110	192	4	E	0	M1
TTP	110	192	5	B	0	M1
TTP	110	192	6	E	0	M1
TTP	110	288	0	C	1	M1
TTP	110	288	2	E	0	M1
TTP	110	288	2	B	0	M1
TTP	110	288	3	B	0	M1
TAP	111	48	7
TAP	111	96	0
TAP	111	96	7
TTP	111	192	2	B	0	M1
TTP	111	192	2	E	0	M1
TTP	111	192	3	B	0	M1
TTP	111	192	4	E	0	M1
TTP	111	288	0	C	1	M1
TTP	111	288	4	B	0	M1
TTP	111	288	5	B	0	M1
TTP	111	288	6	E	0	M1
TAP	112	48	0
TAP	112	48	7
TAP	112	96	0
TAP	112	96	7
TTP	112	192	3	E	0	M1
TTP	112	192	3	B	0	M1
TTP	112	192	4	B	0	M1
TTP	112	192	5	E	0	M1
TTP	112	288	0	B	0	M1
TTP	112	288	0	C	1	M1
TTP	112	288	1	B	0	M1
TTP	112	288	6	B	0	M1
TTP	112	288	7	B	0	M1
XTP	113	192	3
XTP	113	192	4
THO	114	0	0	960	C	1	M1
TTP	114	0	1	B	0	M1
TTP	114	0	2	B	0	M1
TTP	114	0	5	B	0	M1
TTP	114	0	6	B	0	M1
BRK	117	0	0
BRK	117	0	7
BRK	117	48	0
BRK	117	48	7

T_REC_TAP	338
T_REC_BRK	11
T_REC_XTP	93
T_REC_HLD	16
T_REC_XHO	0
T_REC_STR	136
T_REC_BST	0
T_REC_XST	1
T_REC_TTP	128
T_REC_THO	1
T_REC_SLD	137
T_REC_ALL	861
T_NUM_TAP	696
T_NUM_BRK	11
T_NUM_HLD	17
T_NUM_SLD	137
T_NUM_ALL	861
T_JUDGE_TAP	707
T_JUDGE_HLD	98
T_JUDGE_SLD	137
T_JUDGE_ALL	942
TTM_EACHPAIRS	136
TTM_SCR_TAP	348000
TTM_SCR_BRK	28600
TTM_SCR_HLD	17000
TTM_SCR_SLD	205500
TTM_SCR_ALL	599100
TTM_SCR_S	580100
TTM_SCR_SS	598000
TTM_RAT_ACV	10018

