VERSION	0.00.00	1.03.00
FES_MODE	0
BPM_DEF	200.000	200.000	200.000	200.000
MET_DEF	4	4
RESOLUTION	384
CLK_DEF	384
COMPATIBLE_CODE	MA2

BPM	0	0	200.000
MET	0	0	4	4
CLK	0	0
CLK	0	96
CLK	0	192
CLK	0	288

HLD	3	0	3	672
TAP	3	96	4
TAP	3	288	4
TAP	4	96	4
TAP	4	288	4
HLD	5	0	4	576
TAP	5	96	3
TAP	5	288	3
TAP	6	0	3
TAP	6	96	3
TAP	6	192	3
XTP	6	288	1
XTP	6	288	6
TAP	7	0	3
TAP	7	0	4
TAP	7	96	1
TAP	7	144	1
TAP	7	240	0
TAP	7	240	6
TAP	7	336	0
TAP	7	336	6
TAP	8	48	4
TAP	8	48	5
TAP	8	144	4
TAP	8	144	5
TAP	8	240	2
TAP	8	288	2
TAP	9	0	3
TAP	9	0	4
TAP	9	96	6
TAP	9	144	6
TAP	9	240	1
TAP	9	240	7
TAP	9	336	1
TAP	9	336	7
TAP	10	48	2
TAP	10	48	3
TAP	10	144	2
TAP	10	144	3
TAP	10	240	5
TAP	10	288	5
TAP	11	0	3
TAP	11	0	4
TAP	11	96	1
TAP	11	144	1
TAP	11	240	0
TAP	11	240	6
TAP	11	336	0
TAP	11	336	6
TAP	12	48	4
TAP	12	48	5
TAP	12	144	4
TAP	12	144	5
TAP	12	240	2
TAP	12	288	2
TAP	13	0	3
TAP	13	0	4
TAP	13	96	6
TAP	13	144	6
TAP	13	240	1
TAP	13	240	7
STR	13	336	1
SI_	13	336	1	96	144	4
STR	13	336	7
SI_	13	336	7	96	144	4
BRK	14	288	0
TTP	15	0	7	B	0	M1
TTP	15	96	6	B	0	M1
TTP	15	192	5	B	0	M1
TTP	15	288	4	B	0	M1
TTP	16	0	3	B	0	M1
TTP	16	96	2	B	0	M1
TTP	16	192	0	C	0	M1
TTP	16	192	1	B	0	M1
TTP	17	0	0	B	0	M1
TTP	17	96	1	B	0	M1
TTP	17	192	2	B	0	M1
TTP	17	288	3	B	0	M1
TTP	18	0	4	B	0	M1
TTP	18	96	5	B	0	M1
TTP	18	192	0	C	0	M1
TTP	18	192	6	B	0	M1
TTP	19	0	3	E	0	M1
TTP	19	96	2	B	0	M1
TTP	19	192	1	B	0	M1
TTP	19	288	1	E	0	M1
TTP	20	0	5	E	0	M1
TTP	20	96	5	B	0	M1
TTP	20	192	6	B	0	M1
TTP	20	288	7	E	0	M1
TTP	21	0	0	B	0	M1
TTP	21	0	7	B	0	M1
TTP	21	192	3	B	0	M1
TTP	21	192	4	B	0	M1
THO	22	0	0	192	C	1	M1
TAP	23	0	5
TAP	23	96	4
TAP	23	96	5
TAP	23	192	5
TAP	23	288	5
TAP	23	288	7
TAP	24	0	5
TAP	24	96	3
TAP	24	96	5
TAP	24	192	5
TAP	24	288	3
TAP	24	288	4
TAP	25	0	2
TAP	25	96	2
TAP	25	96	3
TAP	25	192	2
TAP	25	288	0
TAP	25	288	2
TAP	26	0	2
TAP	26	96	2
TAP	26	96	4
TAP	26	192	2
TAP	26	288	3
TAP	26	288	4
HLD	27	0	5	96
HLD	27	96	6	96
TAP	27	192	7
TAP	27	288	0
TAP	27	288	7
HLD	28	0	1	96
HLD	28	96	2	96
TAP	28	192	3
TAP	28	288	3
TAP	28	288	4
TAP	29	0	2
TAP	29	0	3
TAP	29	96	2
TAP	29	96	3
TAP	29	192	4
TAP	29	192	5
TAP	29	288	4
TAP	29	288	5
XTP	30	0	3
XTP	30	0	4
XTP	30	48	3
XTP	30	48	4
HLD	30	96	3	96
HLD	30	96	4	96
BRK	30	288	0
BRK	30	288	7
BRK	31	0	1
BRK	31	0	6
TAP	31	96	2
TAP	31	96	3
TAP	31	192	5
TAP	31	240	5
STR	31	288	0
SCR	31	288	0	96	96	4
TAP	32	0	7
XTP	32	144	6
XTP	32	192	6
TAP	32	288	3
TAP	32	288	5
TAP	33	0	2
TAP	33	0	3
TAP	33	96	0
TAP	33	96	1
TAP	33	192	6
TAP	33	192	7
TAP	33	288	4
TAP	33	288	5
BRK	34	0	2
BRK	34	0	6
TAP	34	96	4
TAP	34	144	4
TAP	34	240	1
TAP	34	288	1
HLD	35	0	6	384
TAP	35	96	7
TAP	35	192	0
TAP	35	288	1
HLD	36	0	2	288
TAP	36	96	3
TAP	36	192	4
TAP	36	288	5
HLD	37	0	6	96
HLD	37	96	4	96
HLD	37	192	3	96
TAP	37	288	1
TAP	37	336	1
XTP	38	48	3
XTP	38	48	4
XTP	38	96	3
XTP	38	96	4
TTP	38	192	0	C	1	M1
TTP	38	192	2	B	0	M1
TTP	38	192	5	B	0	M1
BRK	39	0	0
BRK	39	0	7
TAP	39	96	4
TAP	39	96	5
TAP	39	192	2
TAP	39	240	2
STR	39	288	7
SCL	39	288	7	96	96	3
TAP	40	0	0
XTP	40	144	1
XHO	40	192	1	96
TAP	40	288	0
TAP	41	0	6
TAP	41	0	7
TAP	41	96	4
TAP	41	96	5
TAP	41	192	2
TAP	41	192	3
TAP	41	288	0
TAP	41	288	1
BRK	42	0	2
BRK	42	0	6
TAP	42	96	0
TAP	42	144	0
TAP	42	240	5
TAP	42	288	5
HLD	43	0	1	384
TAP	43	96	0
TAP	43	192	7
TAP	43	288	6
HLD	44	0	5	288
TAP	44	96	4
TAP	44	192	3
TAP	44	288	2
HLD	45	0	1	96
HLD	45	96	3	96
HLD	45	192	4	96
TAP	45	288	6
TAP	45	336	6
XTP	46	48	0
XTP	46	48	7
XTP	46	96	0
XTP	46	96	7
TAP	46	192	3
TAP	46	192	4
TAP	46	288	2
TAP	46	288	5
HLD	47	0	1	96
TAP	47	96	3
TAP	47	192	6
TAP	47	240	6
TAP	47	288	4
TAP	48	0	1
TAP	48	0	3
TAP	48	96	2
TAP	48	96	4
TAP	48	192	3
TAP	48	192	5
TAP	48	288	4
TAP	48	288	6
HLD	49	0	6	96
TAP	49	96	7
TAP	49	192	1
TAP	49	240	1
TAP	49	288	0
STR	50	0	7
SI_	50	0	7	96	48	3
BRK	50	192	0
HLD	51	0	6	96
TAP	51	96	4
TAP	51	192	1
TAP	51	240	1
TAP	51	288	3
TAP	52	0	4
TAP	52	0	6
TAP	52	96	3
TAP	52	96	5
TAP	52	192	2
TAP	52	192	4
TAP	52	288	1
TAP	52	288	3
TAP	53	0	0
TAP	53	0	7
TAP	53	96	2
TAP	53	96	5
XTP	53	192	3
XTP	53	192	4
XTP	53	240	3
XTP	53	240	4
XST	53	288	3
SI_	53	288	3	96	72	0
XST	53	288	4
SI_	53	288	4	96	72	7
BRK	54	192	1
BRK	54	192	6
TAP	55	0	0
TAP	55	0	7
TAP	55	96	2
TAP	55	144	4
TAP	55	192	3
TAP	55	288	0
TAP	55	288	7
TAP	56	0	1
TAP	56	0	6
TAP	56	96	5
TAP	56	144	3
TAP	56	192	4
TAP	56	288	0
TAP	56	288	7
HLD	57	0	1	192
TAP	57	96	3
HLD	57	192	6	96
TAP	57	288	4
TAP	58	0	0
TAP	58	48	7
TAP	58	96	0
BRK	58	192	2
BRK	58	192	5
TAP	59	0	3
TAP	59	0	4
TAP	59	96	6
TAP	59	144	0
TAP	59	192	7
TAP	59	288	3
TAP	59	288	4
TAP	60	0	2
TAP	60	0	5
TAP	60	96	1
TAP	60	144	7
TAP	60	192	0
TAP	60	288	3
TAP	60	288	4
HLD	61	0	5	96
HLD	61	96	7	96
HLD	61	192	0	96
TAP	61	288	2
TAP	62	0	4
TAP	62	48	3
TAP	62	96	4
BRK	62	192	1
BRK	62	192	6
HLD	63	0	3	384
TTP	63	192	3	B	0	M1
HLD	64	0	4	384
TTP	64	192	4	B	0	M1
HLD	65	0	3	384
TTP	65	192	2	B	0	M1
HLD	66	0	4	384
TTP	66	192	5	B	0	M1
HLD	67	0	3	672
HLD	68	0	7	288
TAP	69	0	3
TAP	69	0	7
TAP	69	96	2
TAP	69	96	6
TAP	69	192	1
TAP	69	192	5
STR	69	288	0
SI_	69	288	0	96	96	3
STR	69	288	4
SI_	69	288	4	96	96	7
BRK	70	192	2
BRK	70	192	6
TAP	71	0	2
TAP	71	0	5
TAP	71	96	6
TAP	71	96	7
TAP	71	192	1
TAP	71	240	1
STR	71	288	4
SCR	71	288	4	96	96	0
TAP	72	0	3
XTP	72	144	2
XTP	72	192	2
TAP	72	288	1
TAP	72	288	7
TAP	73	0	6
TAP	73	0	7
TAP	73	96	4
TAP	73	96	5
TAP	73	192	2
TAP	73	192	3
TAP	73	288	0
TAP	73	288	1
BRK	74	0	2
BRK	74	0	6
TAP	74	96	4
TAP	74	144	4
TAP	74	240	1
TAP	74	288	1
HLD	75	0	5	384
TAP	75	96	6
TAP	75	192	7
TAP	75	288	0
HLD	76	0	1	288
TAP	76	96	0
TAP	76	192	7
TAP	76	288	6
HLD	77	0	5	96
HLD	77	96	7	96
HLD	77	192	0	96
TAP	77	288	2
TAP	77	336	2
XTP	78	48	3
XTP	78	48	4
XTP	78	96	3
XTP	78	96	4
TTP	78	192	0	C	1	M1
TTP	78	192	2	B	0	M1
TTP	78	192	5	B	0	M1
BRK	79	0	0
BRK	79	0	7
TAP	79	96	3
TAP	79	96	4
TAP	79	192	6
TAP	79	240	6
STR	79	288	3
SCL	79	288	3	96	96	7
TAP	80	0	4
XTP	80	144	5
XHO	80	192	5	96
TAP	80	288	4
TAP	81	0	2
TAP	81	0	3
TAP	81	96	0
TAP	81	96	1
TAP	81	192	6
TAP	81	192	7
TAP	81	288	4
TAP	81	288	5
BRK	82	0	2
BRK	82	0	6
TAP	82	96	0
TAP	82	144	0
TAP	82	240	4
TAP	82	288	4
HLD	83	0	2	384
TAP	83	96	1
TAP	83	192	0
TAP	83	288	7
HLD	84	0	6	288
TAP	84	96	7
TAP	84	192	0
TAP	84	288	1
HLD	85	0	2	96
HLD	85	96	0	96
HLD	85	192	7	96
TAP	85	288	5
TAP	85	336	5
XTP	86	48	0
XTP	86	48	7
XTP	86	96	0
XTP	86	96	7
TAP	86	192	3
TAP	86	192	4
TAP	86	288	2
TAP	86	288	5
HLD	87	0	1	96
TAP	87	96	3
TAP	87	192	6
TAP	87	240	6
TAP	87	288	4
TAP	88	0	1
TAP	88	0	3
TAP	88	96	2
TAP	88	96	4
TAP	88	192	3
TAP	88	192	5
TAP	88	288	4
TAP	88	288	6
HLD	89	0	6	96
TAP	89	96	7
TAP	89	192	1
TAP	89	240	1
TAP	89	288	0
STR	90	0	7
SI_	90	0	7	96	48	3
BRK	90	192	0
HLD	91	0	6	96
TAP	91	96	4
TAP	91	192	1
TAP	91	240	1
TAP	91	288	3
TAP	92	0	4
TAP	92	0	6
TAP	92	96	3
TAP	92	96	5
TAP	92	192	2
TAP	92	192	4
TAP	92	288	1
TAP	92	288	3
HLD	93	0	1	96
TAP	93	96	0
TAP	93	192	6
TAP	93	240	6
TAP	93	288	7
STR	94	0	0
SI_	94	0	0	96	96	3
STR	94	0	7
SI_	94	0	7	96	96	4
BRK	94	288	2
BRK	94	288	5
TAP	95	0	1
TAP	95	0	3
TAP	95	96	1
TAP	95	96	3
TAP	95	192	4
TAP	95	192	6
TAP	95	288	4
TAP	95	288	6
TAP	96	0	3
TAP	96	0	4
TAP	96	96	0
TAP	96	96	1
TAP	96	192	6
TAP	96	192	7
TAP	96	288	3
TAP	96	288	4
TAP	97	0	4
TAP	97	0	6
TAP	97	96	4
TAP	97	96	6
TAP	97	192	1
TAP	97	192	3
TAP	97	288	1
TAP	97	288	3
STR	98	0	2
SI_	98	0	2	96	96	5
STR	98	0	6
SI_	98	0	6	96	96	1
TAP	98	288	3
TAP	98	288	4
TAP	99	0	4
TAP	99	0	5
TAP	99	96	4
TAP	99	96	6
TAP	99	192	2
TAP	99	192	3
TAP	99	288	1
TAP	99	288	3
TAP	100	0	0
TAP	100	0	7
TAP	100	96	5
TAP	100	96	6
TAP	100	192	3
TAP	100	192	4
TAP	100	288	1
TAP	100	288	2
BRK	101	0	0
BRK	101	0	7
TTP	102	0	6	E	0	M1
TTP	102	96	2	E	0	M1
TTP	102	192	4	E	0	M1
TTP	102	288	0	C	1	M1
TAP	103	0	0
TAP	103	0	7
TAP	103	96	2
TAP	103	144	2
TAP	103	240	3
TAP	103	240	5
TAP	103	336	3
TAP	103	336	5
TAP	104	48	6
TAP	104	48	7
TAP	104	144	6
TAP	104	144	7
TAP	104	240	1
TAP	104	288	1
TAP	105	0	0
TAP	105	0	7
TAP	105	96	5
TAP	105	144	5
TAP	105	240	2
TAP	105	240	4
TAP	105	336	2
TAP	105	336	4
TAP	106	48	0
TAP	106	48	1
TAP	106	144	0
TAP	106	144	1
TAP	106	240	6
TAP	106	288	6
TAP	107	0	0
TAP	107	0	7
TAP	107	96	2
TAP	107	144	2
TAP	107	240	3
TAP	107	240	5
TAP	107	336	3
TAP	107	336	5
TAP	108	48	6
TAP	108	48	7
TAP	108	144	6
TAP	108	144	7
TAP	108	240	1
TAP	108	288	1
TAP	109	0	0
TAP	109	0	7
TAP	109	96	5
TAP	109	144	5
TAP	109	240	2
TAP	109	240	4
BST	109	336	2
SI_	109	336	2	96	144	7
BST	109	336	4
SI_	109	336	4	96	144	7
BST	110	288	3
SI_	110	288	3	96	144	0
BST	110	288	5
SI_	110	288	5	96	144	0
BST	111	288	3
SXR	111	288	3	96	384	7
BST	111	288	4
SXL	111	288	4	96	384	0
TAP	113	192	0
TAP	113	192	7
BST	114	0	1
SCL	114	0	1	96	816	2
BRK	114	0	6
BRK	117	0	0
BRK	117	0	7

T_REC_TAP	410
T_REC_BRK	34
T_REC_XTP	32
T_REC_HLD	46
T_REC_XHO	2
T_REC_STR	14
T_REC_BST	7
T_REC_XST	2
T_REC_TTP	42
T_REC_THO	1
T_REC_SLD	23
T_REC_ALL	613
T_NUM_TAP	500
T_NUM_BRK	41
T_NUM_HLD	49
T_NUM_SLD	23
T_NUM_ALL	613
T_JUDGE_TAP	541
T_JUDGE_HLD	204
T_JUDGE_SLD	23
T_JUDGE_ALL	768
TTM_EACHPAIRS	164
TTM_SCR_TAP	250000
TTM_SCR_BRK	106600
TTM_SCR_HLD	49000
TTM_SCR_SLD	34500
TTM_SCR_ALL	440100
TTM_SCR_S	422950
TTM_SCR_SS	436000
TTM_RAT_ACV	10094

