VERSION	0.00.00	1.03.00
FES_MODE	0
BPM_DEF	200.000	200.000	200.000	200.000
MET_DEF	4	4
RESOLUTION	384
CLK_DEF	384
COMPATIBLE_CODE	MA2

BPM	0	0	200.000
MET	0	0	4	4

TAP	7	0	7
TAP	7	96	7
TAP	7	192	6
TAP	7	288	6
TAP	8	0	5
TAP	8	96	5
XTP	8	192	4
TAP	9	0	3
TAP	9	96	3
TAP	9	192	2
TAP	9	288	2
TAP	10	0	1
TAP	10	96	1
XTP	10	192	0
TAP	11	0	1
TAP	11	96	1
TAP	11	192	2
TAP	11	288	2
TAP	12	0	3
TAP	12	96	3
XTP	12	192	4
TAP	13	0	5
TAP	13	96	5
TAP	13	192	6
TAP	13	288	6
TAP	14	0	7
TAP	14	96	7
XTP	14	192	1
XTP	14	192	6
HLD	15	0	5	192
TAP	15	192	4
HLD	16	0	3	192
TAP	16	192	4
HLD	17	0	5	192
TAP	17	192	4
TAP	18	0	4
TAP	18	0	5
HLD	19	0	2	192
TAP	19	192	3
HLD	20	0	4	192
TAP	20	192	3
HLD	21	0	2	192
TAP	21	192	3
XTP	22	0	1
XTP	22	0	3
HLD	23	0	5	192
TAP	23	192	4
HLD	24	0	2	192
TAP	24	192	3
TAP	25	0	5
TAP	25	192	5
XTP	26	0	4
XTP	26	0	6
HLD	27	0	2	192
TAP	27	192	3
HLD	28	0	5	192
TAP	28	192	4
TAP	29	0	6
TAP	29	192	0
TAP	29	192	7
BRK	30	0	1
BRK	30	0	6
TAP	31	0	1
TAP	31	96	1
TAP	31	192	0
TAP	31	192	1
TAP	32	0	6
TAP	32	96	6
TAP	32	192	6
TAP	32	192	7
TAP	33	0	5
TAP	33	96	5
TAP	33	192	4
TAP	33	288	4
TAP	34	0	3
TAP	34	96	2
XTP	34	192	1
XTP	34	192	3
TAP	35	0	0
TAP	35	96	0
TAP	35	192	1
TAP	35	192	7
TAP	36	0	7
TAP	36	96	7
TAP	36	192	0
TAP	36	192	6
TAP	37	0	0
TAP	37	96	0
TAP	37	192	0
TAP	37	192	7
TAP	37	288	0
TAP	37	288	7
XTP	38	0	1
XTP	38	0	6
TAP	39	0	6
TAP	39	96	6
TAP	39	192	6
TAP	39	192	7
TAP	40	0	1
TAP	40	96	1
TAP	40	192	0
TAP	40	192	1
TAP	41	0	2
TAP	41	96	2
TAP	41	192	3
TAP	41	288	3
TAP	42	0	4
TAP	42	96	5
XTP	42	192	4
XTP	42	192	6
TAP	43	0	7
TAP	43	96	7
TAP	43	192	0
TAP	43	192	6
TAP	44	0	0
TAP	44	96	0
TAP	44	192	1
TAP	44	192	7
TAP	45	0	7
TAP	45	96	7
TAP	45	192	0
TAP	45	192	7
TAP	45	288	0
TAP	45	288	7
XTP	46	0	1
XTP	46	0	6
TAP	47	0	2
TAP	47	96	2
TAP	47	192	1
TAP	47	288	1
TAP	48	0	0
TAP	48	96	0
XTP	48	192	0
XTP	48	192	7
TAP	49	0	7
TAP	49	96	7
TAP	49	192	6
TAP	49	288	6
TAP	50	0	5
TAP	50	96	5
XTP	50	192	4
XTP	50	192	5
TAP	51	0	3
TAP	51	96	3
TAP	51	192	2
TAP	51	288	2
TAP	52	0	1
TAP	52	96	1
XTP	52	192	0
XTP	52	192	1
TAP	53	0	7
TAP	53	96	7
TAP	53	192	0
TAP	53	288	0
BRK	54	0	1
BRK	54	0	6
TTP	55	0	6	B	0	L1
TTP	55	192	0	C	0	L1
TTP	56	0	2	B	0	L1
TTP	57	0	1	B	0	L1
TTP	57	192	0	C	0	L1
TTP	58	0	5	B	0	L1
TTP	59	0	6	B	0	L1
TTP	59	192	0	C	0	L1
TTP	60	0	2	B	0	L1
TTP	60	192	1	B	0	L1
TTP	61	0	0	C	0	L1
TTP	61	192	5	B	0	L1
TTP	62	0	0	C	1	L1
STR	63	0	7
SI_	63	0	7	96	288	4
TAP	64	192	3
STR	65	0	3
SI_	65	0	3	96	288	0
TAP	66	192	7
STR	67	0	0
SI_	67	0	0	96	288	3
STR	67	0	7
SI_	67	0	7	96	288	4
TAP	68	192	3
TAP	68	192	4
STR	69	0	3
SCL	69	0	3	96	288	0
STR	69	0	4
SCR	69	0	4	96	288	7
TAP	71	0	1
TAP	71	96	1
TAP	71	192	0
TAP	71	192	1
TAP	71	288	0
TAP	71	288	1
TAP	72	0	7
TAP	72	96	7
XTP	72	192	0
XTP	72	192	6
TAP	73	0	5
TAP	73	96	5
TAP	73	192	4
TAP	73	288	4
TAP	74	0	3
TAP	74	96	2
XTP	74	192	1
XTP	74	192	3
TAP	75	0	0
TAP	75	96	7
TAP	75	192	0
TAP	75	192	6
TAP	76	0	7
TAP	76	96	0
TAP	76	192	1
TAP	76	192	7
TAP	77	0	2
TAP	77	96	3
TAP	77	192	4
TAP	77	288	5
TAP	78	0	6
TAP	78	96	6
TAP	78	96	7
XTP	78	192	0
XTP	78	192	5
TAP	79	0	6
TAP	79	96	6
TAP	79	192	6
TAP	79	192	7
TAP	79	288	6
TAP	79	288	7
TAP	80	0	0
TAP	80	96	0
XTP	80	192	1
XTP	80	192	7
TAP	81	0	2
TAP	81	96	2
TAP	81	192	3
TAP	81	288	3
TAP	82	0	4
TAP	82	96	5
XTP	82	192	4
XTP	82	192	6
TAP	83	0	7
TAP	83	96	0
TAP	83	192	1
TAP	83	192	7
TAP	84	0	0
TAP	84	96	7
TAP	84	192	0
TAP	84	192	6
TAP	85	0	5
TAP	85	96	4
TAP	85	192	3
TAP	85	288	2
TAP	86	0	1
TAP	86	96	0
TAP	86	96	1
XTP	86	192	2
XTP	86	192	7
TAP	87	0	7
TAP	87	96	7
TAP	87	192	6
TAP	87	288	6
TAP	88	0	5
TAP	88	96	5
XTP	88	192	4
XTP	88	192	5
XTP	88	288	4
XTP	88	288	5
TAP	89	0	3
TAP	89	96	3
TAP	89	192	2
TAP	89	288	2
TAP	90	0	1
XTP	90	96	0
XTP	90	96	1
XTP	90	192	2
XTP	90	192	7
TAP	91	0	7
TAP	91	96	7
TAP	91	192	6
TAP	91	288	6
TAP	92	0	5
TAP	92	96	5
XTP	92	192	4
XTP	92	192	5
XTP	92	288	4
XTP	92	288	5
TAP	93	0	3
TAP	93	96	3
TAP	93	192	4
XTP	93	288	3
XTP	93	288	4
BRK	94	0	2
BRK	94	0	5
TAP	95	0	4
TAP	95	96	4
TAP	95	192	5
TAP	95	288	5
TAP	96	0	6
TAP	96	96	6
XTP	96	192	6
XTP	96	192	7
XTP	96	288	6
XTP	96	288	7
TAP	97	0	0
TAP	97	96	0
TAP	97	192	1
TAP	97	288	1
TAP	98	0	2
XTP	98	96	2
XTP	98	96	3
XTP	98	192	1
XTP	98	192	4
TAP	99	0	4
TAP	99	96	4
TAP	99	192	5
TAP	99	288	5
TAP	100	0	6
TAP	100	96	6
XTP	100	192	6
XTP	100	192	7
XTP	100	288	6
XTP	100	288	7
TAP	101	0	0
TAP	101	96	0
TAP	101	192	7
XTP	101	288	0
XTP	101	288	7
BRK	102	0	1
BRK	102	0	6
HLD	103	0	1	192
TAP	103	192	0
TAP	103	288	0
TAP	104	0	7
TAP	104	96	7
TAP	104	192	0
TAP	104	192	6
HLD	105	0	6	192
TAP	105	192	7
TAP	105	288	7
TAP	106	0	0
TAP	106	96	0
TAP	106	192	1
TAP	106	192	7
HLD	107	0	2	192
TAP	107	192	3
TAP	107	288	3
TAP	108	0	4
TAP	108	96	4
TAP	108	192	3
TAP	108	192	5
HLD	109	0	5	192
TAP	109	192	4
TAP	109	288	4
TAP	110	0	3
TAP	110	96	3
XTP	110	192	2
XTP	110	192	4
TAP	111	0	1
TAP	111	96	1
XTP	111	192	0
XTP	111	192	2
TAP	112	0	7
TAP	112	96	7
XTP	112	192	0
XTP	112	192	6
BRK	112	288	0
BRK	112	288	6
XTP	113	192	0
XTP	113	192	7
HLD	114	0	1	1152
HLD	114	0	6	1152

T_REC_TAP	247
T_REC_BRK	10
T_REC_XTP	71
T_REC_HLD	16
T_REC_XHO	0
T_REC_STR	6
T_REC_BST	0
T_REC_XST	0
T_REC_TTP	13
T_REC_THO	0
T_REC_SLD	6
T_REC_ALL	369
T_NUM_TAP	337
T_NUM_BRK	10
T_NUM_HLD	16
T_NUM_SLD	6
T_NUM_ALL	369
T_JUDGE_TAP	347
T_JUDGE_HLD	104
T_JUDGE_SLD	6
T_JUDGE_ALL	457
TTM_EACHPAIRS	70
TTM_SCR_TAP	168500
TTM_SCR_BRK	26000
TTM_SCR_HLD	16000
TTM_SCR_SLD	9000
TTM_SCR_ALL	219500
TTM_SCR_S	211950
TTM_SCR_SS	218500
TTM_RAT_ACV	10045

