VERSION	0.00.00	1.03.00
FES_MODE	0
BPM_DEF	200.000	200.000	200.000	200.000
MET_DEF	4	4
RESOLUTION	384
CLK_DEF	384
COMPATIBLE_CODE	MA2

BPM	0	0	200.000
MET	0	0	4	4

TAP	7	0	0
TAP	9	0	0
TAP	11	0	7
TAP	13	0	7
HLD	15	0	0	768
HLD	19	0	1	768
TAP	23	0	2
TAP	24	0	2
TAP	25	0	2
TAP	27	0	3
TAP	28	0	3
TAP	29	0	3
TAP	29	0	4
XTP	30	0	3
XTP	30	0	4
TAP	31	0	5
TAP	31	192	5
TAP	32	0	5
TAP	33	0	6
TAP	33	192	6
TAP	34	0	6
TAP	35	0	7
TAP	35	192	7
TAP	36	0	7
TAP	37	0	0
TAP	37	192	0
TAP	38	0	0
TAP	38	0	7
TAP	39	0	1
TAP	39	192	1
TAP	40	0	1
TAP	41	0	2
TAP	41	192	2
TAP	42	0	2
TAP	43	0	3
TAP	43	192	3
TAP	44	0	3
TAP	45	0	4
TAP	45	192	4
XTP	46	0	3
XTP	46	0	4
HLD	47	0	3	192
TAP	48	0	3
TAP	48	192	3
HLD	49	0	4	192
TAP	50	0	4
TAP	50	192	4
TAP	51	0	3
TAP	51	192	3
TAP	52	0	4
TAP	52	192	4
XTP	53	0	3
XTP	53	0	4
XTP	53	192	3
XTP	53	192	4
BRK	54	0	2
BRK	54	0	5
TAP	55	0	1
TAP	56	0	1
TAP	57	0	0
TAP	57	192	0
TAP	58	0	0
TAP	59	0	7
TAP	60	0	7
TAP	61	0	6
TAP	61	192	6
TAP	62	0	6
TTP	63	0	5	B	0	L1
TTP	64	0	4	B	0	L1
TTP	65	0	3	B	0	L1
TTP	66	0	2	B	0	L1
THO	67	0	0	768	C	1	L1
TAP	71	0	0
TAP	71	192	0
TAP	72	0	0
TAP	73	0	1
TAP	73	192	1
TAP	74	0	0
TAP	74	0	1
TAP	75	0	2
TAP	75	192	2
TAP	76	0	3
TAP	76	192	3
TAP	77	0	4
TAP	77	192	4
XTP	78	0	3
XTP	78	0	4
TAP	79	0	4
TAP	79	192	4
TAP	80	0	4
TAP	81	0	5
TAP	81	192	5
TAP	82	0	4
TAP	82	0	5
TAP	83	0	6
TAP	83	192	6
TAP	84	0	7
TAP	84	192	7
TAP	85	0	0
TAP	85	192	0
XTP	86	0	0
XTP	86	0	7
STR	87	0	0
SI_	87	0	0	96	288	4
STR	89	0	7
SI_	89	0	7	96	288	3
TAP	91	0	0
TAP	91	192	0
TAP	92	0	7
TAP	92	192	7
TAP	93	0	0
TAP	93	0	7
TAP	93	192	0
TAP	93	192	7
TAP	94	0	1
TAP	94	0	6
TAP	95	0	2
TAP	95	0	3
TAP	95	192	2
TAP	95	192	3
TAP	96	0	2
TAP	96	0	3
TAP	97	0	4
TAP	97	0	5
TAP	97	192	4
TAP	97	192	5
TAP	98	0	4
TAP	98	0	5
TAP	99	0	3
TAP	99	192	3
TAP	100	0	4
TAP	100	192	4
BRK	101	0	2
BRK	101	0	5
TAP	103	0	3
TAP	104	0	3
TAP	105	0	4
TAP	106	0	4
TAP	107	0	5
TAP	108	0	5
TAP	109	0	6
XTP	110	0	6
XTP	111	0	7
XTP	112	0	7
THO	114	0	0	1152	C	1	L1

T_REC_TAP	112
T_REC_BRK	4
T_REC_XTP	15
T_REC_HLD	4
T_REC_XHO	0
T_REC_STR	2
T_REC_BST	0
T_REC_XST	0
T_REC_TTP	4
T_REC_THO	2
T_REC_SLD	2
T_REC_ALL	145
T_NUM_TAP	133
T_NUM_BRK	4
T_NUM_HLD	6
T_NUM_SLD	2
T_NUM_ALL	145
T_JUDGE_TAP	137
T_JUDGE_HLD	80
T_JUDGE_SLD	2
T_JUDGE_ALL	219
TTM_EACHPAIRS	21
TTM_SCR_TAP	66500
TTM_SCR_BRK	10400
TTM_SCR_HLD	6000
TTM_SCR_SLD	3000
TTM_SCR_ALL	85900
TTM_SCR_S	82950
TTM_SCR_SS	85500
TTM_RAT_ACV	10046

