VERSION	0.00.00	1.03.00
FES_MODE	0
BPM_DEF	 90.000	 90.000	 90.000	 90.000
MET_DEF	4	4
RESOLUTION	384
CLK_DEF	384
COMPATIBLE_CODE	MA2

BPM	0	0	 90.000
MET	0	0	4	4

TTP	1	0	0	C	1	M1
BRK	1	288	3
BRK	1	288	4
STR	2	0	1
SI_	2	0	1	96	48	4
TAP	2	48	0
TAP	2	72	7
TAP	2	96	1
TAP	2	144	6
STR	2	192	1
SI_	2	192	1	96	48	4
TAP	2	240	0
TAP	2	264	7
TAP	2	288	1
TAP	2	336	6
STR	3	0	6
SI_	3	0	6	96	48	3
TAP	3	48	7
TAP	3	72	0
TAP	3	96	6
TAP	3	144	1
STR	3	192	6
SI_	3	192	6	96	48	3
TAP	3	240	7
TAP	3	264	0
TAP	3	288	6
TAP	3	336	1
TAP	4	0	2
TAP	4	24	2
TAP	4	48	3
TAP	4	72	1
TAP	4	96	5
TAP	4	120	5
TAP	4	144	4
TAP	4	168	6
TAP	4	192	2
TAP	4	216	2
TAP	4	240	3
TAP	4	264	1
TAP	4	288	0
TAP	4	288	1
TAP	4	312	0
TAP	4	312	7
TAP	5	0	5
TAP	5	24	5
TAP	5	48	4
TAP	5	72	6
TAP	5	96	2
TAP	5	120	2
TAP	5	144	3
TAP	5	168	1
TAP	5	192	5
TAP	5	216	5
TAP	5	240	4
TAP	5	264	6
TAP	5	288	6
TAP	5	288	7
TAP	5	312	0
TAP	5	312	7
STR	6	0	6
SI_	6	0	6	96	48	3
TAP	6	48	7
TAP	6	72	0
TAP	6	96	6
TAP	6	144	1
STR	6	192	6
SI_	6	192	6	96	48	3
TAP	6	240	7
TAP	6	264	0
TAP	6	288	6
TAP	6	336	1
STR	7	0	1
SI_	7	0	1	96	48	4
TAP	7	48	0
TAP	7	72	7
TAP	7	96	1
TAP	7	144	6
STR	7	192	1
SI_	7	192	1	96	48	4
TAP	7	240	0
TAP	7	264	7
TAP	7	288	1
TAP	7	336	6
TAP	8	0	1
TAP	8	24	1
TAP	8	48	3
TAP	8	72	2
TAP	8	96	6
TAP	8	120	6
TAP	8	144	4
TAP	8	168	5
TAP	8	192	1
TAP	8	216	1
TAP	8	240	3
TAP	8	264	2
TAP	8	288	2
TAP	8	288	3
TAP	8	312	3
TAP	8	312	4
TAP	9	0	4
TAP	9	24	4
TAP	9	48	3
TAP	9	72	5
TAP	9	96	3
TAP	9	120	3
TAP	9	144	4
TAP	9	168	2
TAP	9	192	5
TAP	9	216	5
TAP	9	240	4
TAP	9	264	6
XTP	9	288	3
XST	9	288	6
SCL	9	288	6	96	288	1
XTP	9	312	3
XTP	9	312	6
THO	10	0	0	192	C	0	M1
TAP	11	0	3
TAP	11	0	4
HLD	11	96	3	144
HLD	11	168	5	312
TAP	11	336	3
HLD	12	0	4	240
HLD	12	168	6	72
TAP	12	288	3
TAP	12	288	5
TAP	12	336	4
TAP	12	360	3
HLD	13	0	2	96
HLD	13	0	4	240
HLD	13	168	3	168
HLD	13	288	5	144
HLD	13	360	2	72
TAP	14	96	3
TAP	14	96	4
HLD	14	144	6	96
HLD	14	168	1	72
TAP	14	288	0
TAP	14	288	7
TAP	14	312	0
TAP	14	312	7
HLD	15	0	2	240
HLD	15	0	5	96
TAP	15	144	4
HLD	15	168	3	144
TAP	15	312	1
TAP	15	336	2
TAP	15	360	3
HLD	16	0	1	72
HLD	16	0	4	96
HLD	16	144	3	96
TAP	16	168	4
TAP	16	240	6
TAP	16	264	5
TAP	16	288	2
TAP	16	288	4
TAP	17	0	3
STR	17	0	5
SLR	17	0	5	96	144	4
TAP	17	96	3
TAP	17	168	2
TAP	17	240	1
TAP	17	288	1
TAP	17	336	4
TAP	17	360	3
TAP	18	24	2
TAP	18	24	4
TAP	18	72	3
TAP	18	96	4
TAP	18	120	3
TAP	18	168	3
TAP	18	168	5
TAP	18	216	2
TAP	18	216	4
TAP	18	264	4
TAP	18	288	3
TAP	18	312	3
TAP	18	312	4
STR	19	0	7
SI_	19	0	7	96	96	3
STR	19	96	3
SCR	19	96	3	96	96	7
TTP	19	192	1	E	0	M1
TTP	19	240	2	E	0	M1
TTP	19	264	2	B	0	M1
TTP	19	288	3	B	0	M1
STR	20	0	0
SI_	20	0	0	96	96	4
STR	20	96	4
SCL	20	96	4	96	96	0
TTP	20	192	7	E	0	M1
TTP	20	240	6	E	0	M1
TTP	20	264	5	B	0	M1
TTP	20	288	4	B	0	M1
STR	21	0	7
SI_	21	0	7	96	96	3
STR	21	96	3
SCR	21	96	3	96	96	7
TTP	21	192	1	E	0	M1
TTP	21	240	2	E	0	M1
TTP	21	264	2	B	0	M1
TTP	21	288	3	B	0	M1
HLD	22	0	3	96
HLD	22	0	4	96
TAP	22	144	3
TAP	22	168	4
TAP	22	192	3
TAP	22	216	3
TAP	22	240	4
TAP	22	264	3
TAP	22	336	3
TAP	22	336	4
STR	23	0	6
SI_	23	0	6	96	96	2
STR	23	96	2
SCR	23	96	2	96	96	6
TTP	23	192	1	E	0	M1
TTP	23	240	0	E	0	M1
TTP	23	264	0	C	0	M1
TTP	23	288	4	E	0	M1
STR	24	0	1
SI_	24	0	1	96	96	5
STR	24	96	5
SCL	24	96	5	96	96	1
TTP	24	192	7	E	0	M1
TTP	24	240	0	E	0	M1
TTP	24	264	0	C	0	M1
TTP	24	288	4	E	0	M1
STR	25	0	6
SXR	25	0	6	96	96	4
STR	25	96	4
SCR	25	96	4	96	144	2
STR	25	192	0
SCR	25	192	0	96	96	4
TTP	25	288	3	B	0	M1
TTP	25	288	4	B	0	M1
THO	26	0	0	384	C	1	M1
HLD	27	288	3	96
TAP	27	288	4
TAP	27	312	4
TAP	27	336	4
TAP	27	360	4
STR	28	0	4
SXR	28	0	4	96	96	4
STR	28	96	4
SCR	28	96	4	96	96	1
HLD	28	288	2	96
HLD	29	0	5	48
HLD	29	48	4	48
HLD	29	96	3	48
TAP	29	144	2
STR	29	192	1
SI_	29	192	1	96	24	5
HLD	29	192	7	96
TAP	29	240	3
TTP	29	294	1	B	0	M1
TTP	29	300	0	C	1	M1
TTP	29	306	5	B	0	M1
STR	30	0	3
SXL	30	0	3	96	96	3
TAP	30	0	4
STR	30	96	3
SCL	30	96	3	96	96	6
HLD	30	288	4	144
HLD	31	0	1	48
HLD	31	96	3	48
HLD	31	96	6	48
STR	31	192	0
SI_	31	192	0	96	24	5
STR	31	192	1
SI_	31	192	1	96	24	5
TAP	31	240	7
TTP	31	294	1	B	0	M1
TTP	31	300	0	C	1	M1
TTP	31	306	5	B	0	M1
STR	32	0	3
SXL	32	0	3	96	96	3
TAP	32	0	4
STR	32	96	3
SCL	32	96	3	96	96	6
HLD	32	288	4	96
HLD	33	0	1	48
HLD	33	48	7	48
HLD	33	96	2	48
STR	33	192	0
SI_	33	192	0	96	24	4
STR	33	192	6
SI_	33	192	6	96	24	2
TAP	33	240	7
BRK	33	288	0
BRK	33	288	6
TTP	33	294	0	B	0	M1
TTP	33	294	6	B	0	M1
TTP	33	300	0	C	1	M1
TTP	33	306	2	B	0	M1
TTP	33	306	4	B	0	M1
TAP	34	0	0
TAP	34	0	7
TAP	34	48	1
TAP	34	48	6
TAP	34	96	2
TAP	34	96	5
TAP	34	192	3
TAP	34	192	6
STR	34	240	3
SCL	34	240	3	96	240	4
TAP	34	264	4
TAP	34	288	2
TAP	34	288	5
THO	34	336	0	144	C	0	M1
STR	35	288	2
SI_	35	288	2	96	24	4
STR	35	288	5
SI_	35	288	5	96	24	0
TAP	35	336	4
TAP	35	360	1
TAP	36	0	2
TAP	36	0	5
TAP	36	48	7
STR	36	96	2
SI_	36	96	2	96	24	7
STR	36	96	5
SI_	36	96	5	96	24	3
TAP	36	144	3
TAP	36	168	6
TAP	36	192	2
TAP	36	192	5
TAP	36	240	0
STR	36	288	2
SI_	36	288	2	96	24	4
STR	36	288	5
SI_	36	288	5	96	24	0
TAP	36	336	4
TAP	37	0	2
TAP	37	0	5
TAP	37	48	7
STR	37	96	2
SI_	37	96	2	96	24	7
STR	37	96	5
SI_	37	96	5	96	24	3
TAP	37	144	3
TAP	37	168	6
TAP	37	192	2
TAP	37	192	5
TAP	37	240	0
STR	37	288	2
SI_	37	288	2	96	24	4
STR	37	288	5
SI_	37	288	5	96	24	0
TAP	37	336	4
TAP	37	360	1
XTP	38	0	2
XTP	38	0	5
HLD	38	96	2	96
TAP	38	96	5
TAP	38	144	4
TAP	38	168	4
HLD	38	192	5	96
TAP	38	216	3
TAP	38	264	3
HLD	38	288	2	96
TAP	38	312	4
TAP	38	336	4
TTP	39	0	7	E	0	M1
TTP	39	12	7	B	0	M1
TTP	39	24	0	B	0	M1
TTP	39	36	1	E	0	M1
TTP	39	48	3	E	0	M1
TTP	39	60	3	B	0	M1
TTP	39	72	4	B	0	M1
TTP	39	84	5	E	0	M1
TTP	39	96	0	E	0	M1
TTP	39	108	7	B	0	M1
TTP	39	120	6	B	0	M1
TTP	39	132	6	E	0	M1
TTP	39	144	2	E	0	M1
TTP	39	156	2	B	0	M1
TTP	39	168	3	B	0	M1
TTP	39	180	4	E	0	M1
TTP	39	192	7	E	0	M1
TTP	39	204	6	B	0	M1
TTP	39	216	5	B	0	M1
TTP	39	228	5	E	0	M1
TTP	39	240	1	E	0	M1
TTP	39	252	1	B	0	M1
TTP	39	264	2	B	0	M1
TTP	39	276	3	E	0	M1
TTP	39	288	0	C	1	M1
XTP	39	336	1
XTP	39	336	6
XTP	39	360	1
XTP	39	360	6
XTP	40	0	1
XTP	40	0	6
TAP	40	48	3
TAP	40	48	4
STR	40	96	2
SCR	40	96	2	96	24	4
STR	40	96	5
SCR	40	96	5	96	24	0
TAP	40	144	4
TAP	40	168	1
TAP	40	192	2
TAP	40	192	5
TAP	40	240	7
TAP	40	264	7
STR	40	288	2
SCL	40	288	2	96	24	7
STR	40	288	5
SCL	40	288	5	96	24	3
TAP	40	336	3
TAP	40	360	6
TAP	41	0	2
TAP	41	0	5
TAP	41	48	0
TAP	41	72	0
STR	41	96	2
SCR	41	96	2	96	24	4
STR	41	96	5
SCR	41	96	5	96	24	0
TAP	41	144	4
TAP	41	168	1
TAP	41	192	2
TAP	41	192	5
TAP	41	240	7
TAP	41	264	7
TAP	41	288	3
STR	41	288	6
SSL	41	288	6	96	192	2
TAP	41	336	4
TAP	41	336	5
HLD	42	0	3	192
BRK	42	0	6
STR	42	288	3
SSR	42	288	3	96	192	7
HLD	43	0	2	192
TAP	43	288	3
TAP	43	288	4
TTP	44	0	0	E	0	M1
TTP	44	192	1	E	0	M1
TTP	44	192	7	E	0	M1
THO	45	0	0	384	C	1	M1
TTP	45	0	2	E	0	M1
TTP	45	0	6	E	0	M1
XTP	46	288	3
XTP	46	288	4
STR	47	0	1
SCR	47	0	1	96	24	4
TAP	47	0	5
TAP	47	48	0
TAP	47	72	6
TAP	47	96	1
TAP	47	96	5
TAP	47	144	7
STR	47	192	1
SCR	47	192	1	96	24	4
TAP	47	192	5
TAP	47	240	0
TAP	47	264	6
TAP	47	288	1
TAP	47	288	5
TAP	47	336	7
TAP	48	0	2
STR	48	0	6
SCL	48	0	6	96	24	3
TAP	48	48	7
TAP	48	72	1
TAP	48	96	2
TAP	48	96	6
TAP	48	144	0
TAP	48	192	2
STR	48	192	6
SCL	48	192	6	96	24	3
TAP	48	240	7
TAP	48	264	1
TAP	48	288	2
TAP	48	288	6
TAP	48	336	1
HLD	49	0	2	96
TAP	49	0	3
TAP	49	48	4
TAP	49	72	5
HLD	49	96	6	96
TAP	49	144	7
TAP	49	168	0
HLD	49	192	1	96
TAP	49	240	0
TAP	49	264	7
TAP	49	288	6
TAP	49	336	2
TAP	49	336	5
TAP	50	0	4
HLD	50	0	5	96
TAP	50	48	3
TAP	50	72	2
HLD	50	96	1	96
TAP	50	144	0
TAP	50	168	7
HLD	50	192	6	96
TAP	50	240	7
TAP	50	264	0
TAP	50	288	1
XTP	50	336	3
XTP	50	336	4
TTP	51	0	3	E	0	M1
TTP	51	12	2	B	0	M1
TTP	51	24	1	B	0	M1
TTP	51	36	1	E	0	M1
TTP	51	48	7	E	0	M1
TTP	51	60	6	B	0	M1
TTP	51	72	5	B	0	M1
TTP	51	84	5	E	0	M1
TTP	51	96	2	E	0	M1
TTP	51	108	1	B	0	M1
TTP	51	120	0	B	0	M1
TTP	51	132	0	E	0	M1
TTP	51	144	6	E	0	M1
TTP	51	156	5	B	0	M1
TTP	51	168	4	B	0	M1
TTP	51	180	4	E	0	M1
TTP	51	192	1	E	0	M1
TTP	51	204	0	B	0	M1
TTP	51	216	7	B	0	M1
TTP	51	228	7	E	0	M1
TTP	51	240	5	E	0	M1
TTP	51	252	4	B	0	M1
TTP	51	264	3	B	0	M1
TTP	51	276	3	E	0	M1
TTP	51	288	0	C	1	M1
TTP	52	0	5	E	0	M1
TTP	52	12	5	B	0	M1
TTP	52	24	6	B	0	M1
TTP	52	36	7	E	0	M1
TTP	52	48	1	E	0	M1
TTP	52	60	1	B	0	M1
TTP	52	72	2	B	0	M1
TTP	52	84	3	E	0	M1
TTP	52	96	6	E	0	M1
TTP	52	108	6	B	0	M1
TTP	52	120	7	B	0	M1
TTP	52	132	0	E	0	M1
TTP	52	144	2	E	0	M1
TTP	52	156	2	B	0	M1
TTP	52	168	3	B	0	M1
TTP	52	180	4	E	0	M1
TTP	52	192	7	E	0	M1
TTP	52	204	7	B	0	M1
TTP	52	216	0	B	0	M1
TTP	52	228	1	E	0	M1
TTP	52	240	3	E	0	M1
TTP	52	252	3	B	0	M1
TTP	52	264	4	B	0	M1
TTP	52	276	5	E	0	M1
TTP	52	288	0	C	1	M1
STR	53	0	1
SI_	53	0	1	96	24	4
TAP	53	0	4
TAP	53	48	2
TAP	53	72	3
TAP	53	96	1
STR	53	96	6
SI_	53	96	6	96	24	3
TAP	53	144	5
TAP	53	168	4
STR	53	192	1
SI_	53	192	1	96	24	4
TAP	53	192	6
TAP	53	240	2
TAP	53	264	3
TAP	53	288	1
STR	53	288	6
SI_	53	288	6	96	24	3
TAP	53	336	5
TAP	53	360	4
STR	54	0	0
SI_	54	0	0	96	24	4
TAP	54	0	6
TAP	54	48	1
TAP	54	72	3
TAP	54	96	0
STR	54	96	7
SI_	54	96	7	96	24	3
TAP	54	144	6
TAP	54	168	4
STR	54	192	0
SI_	54	192	0	96	24	4
TAP	54	192	7
TAP	54	240	1
TAP	54	264	3
TAP	54	288	0
STR	54	288	7
SCL	54	288	7	96	192	0
TAP	54	336	6
TAP	54	360	4
HLD	55	0	1	192
TAP	55	0	7
STR	55	288	0
SSL	55	288	0	96	192	4
HLD	56	0	5	192
HLD	56	288	3	384
HLD	57	0	4	744
THO	58	0	0	360	C	0	M1

T_REC_TAP	283
T_REC_BRK	5
T_REC_XTP	15
T_REC_HLD	48
T_REC_XHO	0
T_REC_STR	65
T_REC_BST	0
T_REC_XST	1
T_REC_TTP	114
T_REC_THO	5
T_REC_SLD	66
T_REC_ALL	602
T_NUM_TAP	478
T_NUM_BRK	5
T_NUM_HLD	53
T_NUM_SLD	66
T_NUM_ALL	602
T_JUDGE_TAP	483
T_JUDGE_HLD	324
T_JUDGE_SLD	66
T_JUDGE_ALL	873
TTM_EACHPAIRS	85
TTM_SCR_TAP	239000
TTM_SCR_BRK	13000
TTM_SCR_HLD	53000
TTM_SCR_SLD	99000
TTM_SCR_ALL	404000
TTM_SCR_S	391400
TTM_SCR_SS	403500
TTM_RAT_ACV	10012

