VERSION	0.00.00	1.03.00
FES_MODE	0
BPM_DEF	 90.000	 90.000	 90.000	 90.000
MET_DEF	4	4
RESOLUTION	384
CLK_DEF	384
COMPATIBLE_CODE	MA2

BPM	0	0	 90.000
MET	0	0	4	4

TTP	1	0	0	C	1	M1
TAP	1	288	4
HLD	2	0	2	72
TAP	2	48	3
HLD	2	72	4	72
TAP	2	120	3
STR	2	144	2
SLL	2	144	2	96	96	4
TAP	2	192	3
HLD	3	0	5	72
TAP	3	48	4
HLD	3	72	3	72
TAP	3	120	4
STR	3	144	5
SLR	3	144	5	96	96	3
TAP	3	192	4
TAP	4	0	2
TAP	4	24	2
TAP	4	48	4
TAP	4	72	4
TAP	4	96	3
TAP	4	120	3
TAP	4	144	4
TAP	4	168	4
STR	4	192	2
SCR	4	192	2	96	24	4
TAP	4	216	2
TAP	4	240	5
TAP	4	264	5
TAP	5	0	5
TAP	5	24	5
TAP	5	48	3
TAP	5	72	3
TAP	5	96	4
TAP	5	120	4
TAP	5	144	3
TAP	5	168	3
STR	5	192	5
SCL	5	192	5	96	24	3
TAP	5	216	5
TAP	5	240	2
TAP	5	264	2
HLD	6	0	5	72
TAP	6	48	4
HLD	6	72	3	72
TAP	6	120	4
STR	6	144	5
SLR	6	144	5	96	96	3
TAP	6	192	4
HLD	7	0	2	72
TAP	7	48	3
HLD	7	72	4	72
TAP	7	120	3
STR	7	144	2
SLL	7	144	2	96	96	4
TAP	7	192	3
TAP	8	0	5
TAP	8	24	5
TAP	8	48	3
TAP	8	72	3
TAP	8	96	4
TAP	8	120	4
TAP	8	144	3
TAP	8	168	3
STR	8	192	5
SCL	8	192	5	96	24	3
TAP	8	216	5
TAP	8	240	2
TAP	8	264	2
TAP	9	0	2
TAP	9	24	2
TAP	9	48	4
TAP	9	72	4
TAP	9	96	3
TAP	9	120	3
TAP	9	144	4
TAP	9	168	4
STR	9	192	2
SCR	9	192	2	96	24	4
TAP	9	216	2
TAP	9	240	5
TAP	9	264	5
THO	10	0	0	288	C	0	M1
HLD	11	96	2	192
HLD	11	168	4	312
TAP	12	0	2
HLD	12	96	3	144
HLD	12	168	5	168
TAP	12	288	2
TAP	12	336	2
TAP	13	0	3
TAP	13	48	4
HLD	13	96	5	192
HLD	13	168	3	312
TAP	14	0	5
HLD	14	96	4	144
HLD	14	168	2	168
TAP	14	288	5
TAP	14	336	5
TAP	15	0	3
TAP	15	0	4
HLD	15	96	1	144
HLD	15	168	4	312
TAP	15	288	1
TAP	15	336	1
TAP	16	0	2
HLD	16	96	3	144
HLD	16	168	6	120
TAP	16	288	1
TAP	17	0	1
HLD	17	96	6	144
HLD	17	168	3	312
TAP	17	288	6
TAP	17	336	6
TAP	18	0	5
HLD	18	96	4	144
HLD	18	168	1	120
TAP	18	288	6
TAP	19	0	0
TAP	19	0	7
TTP	19	96	1	B	0	M1
TTP	19	96	6	B	0	M1
TTP	19	192	4	E	0	M1
TTP	19	240	1	B	0	M1
TTP	19	264	0	C	0	M1
TTP	19	288	5	B	0	M1
TAP	20	0	0
TAP	20	0	7
TTP	20	96	1	B	0	M1
TTP	20	96	6	B	0	M1
TTP	20	192	4	E	0	M1
TTP	20	240	5	B	0	M1
TTP	20	264	0	C	0	M1
TTP	20	288	1	B	0	M1
TAP	21	0	0
TAP	21	0	7
TTP	21	96	1	B	0	M1
TTP	21	96	6	B	0	M1
TTP	21	192	4	E	0	M1
TTP	21	240	6	B	0	M1
TTP	21	264	0	C	0	M1
TTP	21	288	2	B	0	M1
THO	22	0	0	192	C	0	M1
TAP	23	0	1
TAP	23	0	6
TTP	23	96	3	E	0	M1
TTP	23	96	5	E	0	M1
TTP	23	192	4	E	0	M1
TTP	23	240	2	E	0	M1
TTP	23	264	0	C	0	M1
TTP	23	288	6	E	0	M1
TAP	24	0	1
TAP	24	0	6
TTP	24	96	3	E	0	M1
TTP	24	96	5	E	0	M1
TTP	24	192	4	E	0	M1
TTP	24	240	6	E	0	M1
TTP	24	264	0	C	0	M1
TTP	24	288	2	E	0	M1
TAP	25	0	1
TAP	25	0	6
TTP	25	96	3	E	0	M1
TTP	25	96	5	E	0	M1
TTP	25	192	4	E	0	M1
TTP	25	240	2	E	0	M1
TTP	25	264	0	C	0	M1
TTP	25	288	6	E	0	M1
THO	26	0	0	384	C	1	M1
TAP	27	288	3
TAP	27	312	3
TAP	27	336	4
TAP	27	360	3
HLD	28	0	2	96
HLD	28	0	5	96
TAP	28	144	1
TAP	28	144	6
STR	28	192	0
SI_	28	192	0	96	24	4
STR	28	192	7
SI_	28	192	7	96	24	3
TAP	28	240	0
TAP	28	240	7
TAP	29	0	5
TAP	29	48	4
TAP	29	48	5
TAP	29	96	3
TAP	29	96	4
TAP	29	144	2
TAP	29	144	3
STR	29	192	1
SI_	29	192	1	96	24	6
STR	29	192	2
SI_	29	192	2	96	24	5
TAP	29	240	1
TAP	29	240	2
TAP	30	0	3
HLD	30	0	6	96
STR	30	96	4
SCL	30	96	4	96	48	1
TAP	30	144	4
TAP	30	288	0
TAP	30	336	7
TAP	31	0	6
TAP	31	48	4
TAP	31	48	5
TAP	31	96	3
TAP	31	96	4
TAP	31	144	2
TAP	31	144	3
STR	31	192	1
SI_	31	192	1	96	24	6
STR	31	192	2
SI_	31	192	2	96	24	5
TAP	31	240	1
TAP	31	240	2
HLD	32	0	3	96
TAP	32	0	6
STR	32	96	5
SCR	32	96	5	96	48	0
TAP	32	144	5
TAP	32	288	2
TAP	32	288	4
TAP	32	336	1
TAP	33	0	0
TAP	33	48	0
TAP	33	48	4
TAP	33	96	1
TAP	33	96	5
TAP	33	144	2
TAP	33	144	6
STR	33	192	3
SI_	33	192	3	96	24	0
STR	33	192	7
SI_	33	192	7	96	24	4
TAP	33	240	3
TAP	33	240	7
TAP	34	0	0
TAP	34	48	1
TAP	34	96	2
TAP	34	96	5
XTP	34	192	0
XTP	34	192	4
XTP	34	264	2
XTP	34	264	6
XST	34	336	3
SI_	34	336	3	96	96	0
XTP	34	336	7
TAP	35	192	1
TAP	35	192	6
TAP	35	216	1
TAP	35	216	6
TAP	35	240	1
TAP	35	240	6
BRK	35	264	1
BRK	35	264	6
TAP	35	336	0
TAP	35	360	0
TAP	36	0	1
TAP	36	0	7
TAP	36	48	6
TAP	36	96	3
TAP	36	96	5
TAP	36	144	7
TAP	36	168	7
TAP	36	192	0
TAP	36	192	6
STR	36	240	1
SI_	36	240	1	96	48	4
TAP	36	264	1
STR	36	288	5
SI_	36	288	5	96	48	0
TAP	36	312	5
TAP	37	96	2
TAP	37	120	2
TAP	37	144	4
TAP	37	168	4
TAP	37	192	1
TAP	37	192	5
STR	37	240	6
SI_	37	240	6	96	48	3
TAP	37	264	6
STR	37	288	2
SI_	37	288	2	96	48	7
TAP	37	312	2
TAP	38	96	7
TAP	38	144	1
TAP	38	192	3
STR	38	240	5
SI_	38	240	5	96	48	2
TAP	38	264	5
STR	38	288	1
SXR	38	288	1	96	192	6
TAP	38	312	1
TAP	39	288	2
TAP	39	288	5
TAP	39	336	7
TAP	39	360	7
TAP	40	0	0
TAP	40	0	6
TAP	40	48	1
TAP	40	72	1
TAP	40	96	2
TAP	40	96	4
TAP	40	144	0
TAP	40	168	0
TAP	40	192	1
TAP	40	192	7
STR	40	240	6
SI_	40	240	6	96	48	3
TAP	40	264	6
STR	40	288	2
SI_	40	288	2	96	48	7
TAP	40	312	2
TAP	41	96	5
TAP	41	120	5
TAP	41	144	3
TAP	41	168	3
TAP	41	192	2
TAP	41	192	6
STR	41	240	0
SI_	41	240	0	96	48	4
TAP	41	264	0
STR	41	288	6
SI_	41	288	6	96	48	2
TAP	41	312	6
STR	43	0	4
SLL	43	0	4	96	240	0
SLR	43	0	4	96	240	0
STR	44	0	0
SLL	44	0	0	96	240	4
SLR	44	0	0	96	240	4
THO	45	0	0	384	C	1	M1
TAP	46	288	3
TAP	46	288	4
HLD	47	0	6	72
TAP	47	48	4
HLD	47	72	3	72
TAP	47	120	4
STR	47	144	5
SLR	47	144	5	96	96	3
TAP	47	192	4
HLD	48	0	1	72
TAP	48	48	3
HLD	48	72	4	72
TAP	48	120	3
STR	48	144	2
SLL	48	144	2	96	96	4
TAP	48	192	3
TAP	49	0	6
TAP	49	24	6
TAP	49	48	3
TAP	49	72	3
TAP	49	96	4
TAP	49	120	4
TAP	49	144	1
TAP	49	168	1
STR	49	192	5
SI_	49	192	5	96	48	2
TAP	49	216	5
TAP	49	240	3
TAP	49	264	3
TAP	50	0	1
TAP	50	24	1
TAP	50	48	4
TAP	50	72	4
TAP	50	96	3
TAP	50	120	3
TAP	50	144	6
TAP	50	168	6
TAP	50	192	2
TAP	50	216	2
TAP	50	240	4
TAP	50	264	4
TAP	50	288	3
TAP	50	288	4
TAP	51	0	0
TTP	51	48	6	B	0	M1
TTP	51	60	0	C	0	M1
TTP	51	72	2	B	0	M1
TAP	51	96	7
TAP	51	144	7
TAP	51	192	7
TTP	51	240	1	B	0	M1
TTP	51	252	0	C	0	M1
TTP	51	264	5	B	0	M1
TAP	51	288	0
TAP	51	336	0
TAP	52	0	0
TTP	52	48	6	B	0	M1
TTP	52	60	0	C	0	M1
TTP	52	72	2	B	0	M1
TAP	52	96	7
TAP	52	144	7
TAP	52	192	7
TTP	52	240	1	B	0	M1
TTP	52	252	0	C	0	M1
TTP	52	264	5	B	0	M1
TAP	52	288	0
TAP	52	336	0
TAP	53	0	1
TTP	53	48	6	E	0	M1
TTP	53	60	5	E	0	M1
TTP	53	72	4	E	0	M1
TAP	53	96	6
TTP	53	144	2	E	0	M1
TTP	53	156	3	E	0	M1
TTP	53	168	4	E	0	M1
TAP	53	192	1
TTP	53	240	6	E	0	M1
TTP	53	252	5	E	0	M1
TTP	53	264	4	E	0	M1
TAP	53	288	6
TTP	53	336	2	E	0	M1
TTP	53	348	3	E	0	M1
TTP	53	360	4	E	0	M1
TAP	54	0	1
TTP	54	48	6	E	0	M1
TTP	54	60	5	E	0	M1
TTP	54	72	4	E	0	M1
TAP	54	96	6
TTP	54	144	2	E	0	M1
TTP	54	156	3	E	0	M1
TTP	54	168	4	E	0	M1
TAP	54	192	1
TTP	54	240	6	E	0	M1
TTP	54	252	5	E	0	M1
TTP	54	264	4	E	0	M1
TAP	54	288	6
TTP	54	336	2	E	0	M1
TTP	54	348	3	E	0	M1
TTP	54	360	4	E	0	M1
STR	55	0	1
SCL	55	0	1	96	1344	2
TTP	55	192	0	E	0	M1
TTP	56	0	7	E	0	M1
TTP	56	192	6	E	0	M1
TTP	57	0	5	E	0	M1
TTP	57	192	4	E	0	M1
TTP	58	0	0	C	0	M1
TTP	58	192	0	E	0	M1

T_REC_TAP	245
T_REC_BRK	2
T_REC_XTP	5
T_REC_HLD	32
T_REC_XHO	0
T_REC_STR	34
T_REC_BST	0
T_REC_XST	1
T_REC_TTP	80
T_REC_THO	4
T_REC_SLD	37
T_REC_ALL	440
T_NUM_TAP	365
T_NUM_BRK	2
T_NUM_HLD	36
T_NUM_SLD	37
T_NUM_ALL	440
T_JUDGE_TAP	367
T_JUDGE_HLD	232
T_JUDGE_SLD	37
T_JUDGE_ALL	636
TTM_EACHPAIRS	48
TTM_SCR_TAP	182500
TTM_SCR_BRK	5200
TTM_SCR_HLD	36000
TTM_SCR_SLD	55500
TTM_SCR_ALL	279200
TTM_SCR_S	270650
TTM_SCR_SS	279000
TTM_RAT_ACV	10007

