VERSION	0.00.00	1.03.00
FES_MODE	0
BPM_DEF	 90.000	 90.000	 90.000	 90.000
MET_DEF	4	4
RESOLUTION	384
CLK_DEF	384
COMPATIBLE_CODE	MA2

BPM	0	0	 90.000
MET	0	0	4	4
CLK	0	0
CLK	0	96
CLK	0	192
CLK	0	288

TTP	1	0	0	C	1	L1
TAP	2	0	2
TAP	2	48	2
TAP	2	96	3
TAP	2	192	3
TAP	2	192	4
TAP	2	288	4
TAP	2	288	5
TAP	3	0	5
TAP	3	48	5
TAP	3	96	4
TAP	3	192	3
TAP	3	192	4
TAP	3	288	2
TAP	3	288	3
HLD	4	0	2	192
TAP	4	0	3
TAP	4	96	4
TAP	4	192	3
TAP	4	288	1
TAP	4	288	4
TAP	5	0	4
HLD	5	0	5	192
TAP	5	96	3
TAP	5	192	4
TAP	5	288	3
TAP	5	288	6
TAP	6	0	1
TAP	6	48	1
TAP	6	96	0
TAP	6	192	0
TAP	6	192	7
TAP	6	288	6
TAP	6	288	7
TAP	7	0	6
TAP	7	48	6
TAP	7	96	7
TAP	7	192	0
TAP	7	192	7
TAP	7	288	0
TAP	7	288	1
TAP	8	0	0
HLD	8	0	1	192
TAP	8	96	7
TAP	8	192	0
TAP	8	288	6
TAP	8	288	7
HLD	9	0	0	192
TAP	9	0	7
TAP	9	96	6
TAP	9	192	7
BRK	9	288	1
BRK	9	288	6
STR	10	0	3
SSR	10	0	3	96	192	7
HLD	11	0	6	192
TAP	11	96	7
TAP	11	192	0
TAP	11	288	0
TAP	11	288	7
HLD	12	0	7	192
TAP	12	96	0
TAP	12	192	1
TAP	12	288	0
TAP	12	288	1
HLD	13	0	1	192
TAP	13	96	0
TAP	13	192	7
TAP	13	288	0
TAP	13	288	7
HLD	14	0	0	192
TAP	14	96	7
TAP	14	192	6
TAP	14	288	6
TAP	14	288	7
HLD	15	0	5	384
TAP	15	192	4
TAP	15	288	4
HLD	16	0	4	384
TAP	16	192	3
TAP	16	288	3
HLD	17	0	3	384
TAP	17	192	2
TAP	17	288	2
HLD	18	0	2	192
XTP	18	192	3
XTP	18	288	1
XTP	18	288	4
STR	19	0	6
SV_	19	0	6	96	144	3
STR	20	0	2
SV_	20	0	2	96	144	5
STR	21	0	4
SUR	21	0	4	96	144	0
STR	22	0	1
SUR	22	0	1	96	144	5
TTP	23	0	6	E	0	L1
TTP	23	0	6	B	0	L1
TTP	23	96	0	B	0	L1
TTP	23	96	7	B	0	L1
TTP	23	192	1	B	0	L1
TTP	23	192	2	E	0	L1
TTP	24	0	2	B	0	L1
TTP	24	0	2	E	0	L1
TTP	24	96	3	B	0	L1
TTP	24	96	4	B	0	L1
TTP	24	192	5	B	0	L1
TTP	24	192	6	E	0	L1
TTP	25	0	3	E	0	L1
TTP	25	0	5	E	0	L1
TTP	25	96	2	E	0	L1
TTP	25	96	6	E	0	L1
TTP	25	192	3	B	0	L1
TTP	25	192	4	B	0	L1
TTP	25	288	1	B	0	L1
TTP	25	288	6	B	0	L1
THO	26	0	0	384	C	1	L1
HLD	28	0	2	288
HLD	28	0	3	96
TAP	28	192	4
TAP	28	288	3
TAP	29	0	1
TAP	29	48	0
TAP	29	96	7
HLD	29	144	6	144
BRK	29	288	7
HLD	30	0	4	96
HLD	30	0	5	288
TAP	30	192	3
TAP	30	288	4
TAP	31	0	6
TAP	31	48	7
TAP	31	96	0
HLD	31	144	1	144
BRK	31	288	0
HLD	32	0	2	192
HLD	32	0	3	96
HLD	32	192	4	96
TAP	32	288	3
TAP	33	0	2
TAP	33	48	1
TAP	33	96	0
HLD	33	144	7	144
BRK	33	288	0
TAP	34	0	4
TAP	34	0	6
TAP	34	96	3
TAP	34	96	5
TAP	34	192	2
TAP	34	192	4
STR	34	288	2
SXR	34	288	2	96	288	6
STR	34	288	3
SXL	34	288	3	96	288	7
TAP	36	0	0
TAP	36	0	1
TAP	36	96	2
TAP	36	96	3
TAP	36	192	4
TAP	36	240	5
TAP	36	288	6
TAP	37	0	6
TAP	37	0	7
TAP	37	96	4
TAP	37	96	5
TAP	37	192	3
TAP	37	240	2
TAP	37	288	1
TAP	38	0	0
TAP	38	0	7
TAP	38	96	1
TAP	38	96	6
TAP	38	192	5
TAP	38	240	4
TAP	38	288	3
TAP	39	0	2
TAP	39	0	3
TAP	39	96	4
TAP	39	96	5
BRK	39	192	1
BRK	39	192	6
TAP	40	0	4
TAP	40	0	5
TAP	40	96	6
TAP	40	96	7
TAP	40	192	0
TAP	40	240	1
TAP	40	288	2
TAP	41	0	2
TAP	41	0	3
TAP	41	96	4
TAP	41	96	5
TAP	41	192	2
TAP	41	192	5
TAP	41	240	2
TAP	41	240	5
TAP	41	288	2
TAP	41	288	5
TTP	42	0	3	B	0	L1
TTP	42	96	0	C	0	L1
TTP	42	192	7	B	0	L1
TTP	43	0	4	B	0	L1
TTP	43	96	0	C	0	L1
TTP	43	192	0	B	0	L1
TTP	44	0	4	B	0	L1
TTP	44	0	6	E	0	L1
TTP	44	192	2	E	0	L1
TTP	44	192	3	B	0	L1
THO	45	0	0	384	C	1	L1
XTP	46	288	0
XTP	46	288	7
TAP	47	0	6
TAP	47	48	6
TAP	47	96	7
TAP	47	192	0
TAP	47	192	7
TAP	47	288	2
TAP	47	288	3
TAP	48	0	1
TAP	48	48	1
TAP	48	96	0
TAP	48	192	0
TAP	48	192	7
TAP	48	288	4
TAP	48	288	5
HLD	49	0	6	192
TAP	49	0	7
TAP	49	96	0
TAP	49	192	7
TAP	49	288	1
TAP	49	288	4
TAP	50	0	0
HLD	50	0	1	192
TAP	50	96	7
TAP	50	192	0
TAP	50	288	3
TAP	50	288	6
TAP	51	0	5
TAP	51	48	5
TAP	51	96	4
TAP	51	192	3
TAP	51	192	4
TAP	51	288	0
TAP	51	288	1
TAP	52	0	2
TAP	52	48	2
TAP	52	96	3
TAP	52	192	3
TAP	52	192	4
TAP	52	288	6
TAP	52	288	7
TAP	53	0	4
HLD	53	0	5	192
TAP	53	96	3
TAP	53	192	4
TAP	53	288	2
TAP	53	288	7
TAP	54	0	3
HLD	54	0	4	192
TAP	54	96	2
TAP	54	192	3
BST	54	288	2
SLL	54	288	2	96	192	6
BRK	54	288	5
STR	56	0	6
SLL	56	0	6	96	192	2
TTP	57	0	0	B	0	L1
TTP	57	0	1	B	0	L1
TTP	57	192	4	B	0	L1
TTP	57	192	5	B	0	L1
THO	58	0	0	384	C	0	L1

T_REC_TAP	176
T_REC_BRK	8
T_REC_XTP	5
T_REC_HLD	26
T_REC_XHO	0
T_REC_STR	8
T_REC_BST	1
T_REC_XST	0
T_REC_TTP	35
T_REC_THO	3
T_REC_SLD	9
T_REC_ALL	271
T_NUM_TAP	224
T_NUM_BRK	9
T_NUM_HLD	29
T_NUM_SLD	9
T_NUM_ALL	271
T_JUDGE_TAP	233
T_JUDGE_HLD	266
T_JUDGE_SLD	9
T_JUDGE_ALL	508
TTM_EACHPAIRS	61
TTM_SCR_TAP	112000
TTM_SCR_BRK	23400
TTM_SCR_HLD	29000
TTM_SCR_SLD	13500
TTM_SCR_ALL	177900
TTM_SCR_S	171700
TTM_SCR_SS	177000
TTM_RAT_ACV	10050

